<?xml version="1.0" standalone="no"?>
<!DOCTYPE svg PUBLIC "-//W3C//DTD SVG 1.1//EN" "http://www.w3.org/Graphics/SVG/1.1/DTD/svg11.dtd" >
<svg xmlns="http://www.w3.org/2000/svg" xmlns:xlink="http://www.w3.org/1999/xlink" version="1.1">
<metadata>
Created by FontForge 20170731 at Thu Apr 17 11:59:03 2014
 By Aleksey,,,
Copyright (c) 2014 by Vyacheslav Kirilenko, Gayane Bagdasaryan. All rights reserved.
</metadata>
<defs>
<font id="Formular-Bold" horiz-adv-x="642" >
  <font-face 
    font-family="Formular"
    font-weight="700"
    font-stretch="normal"
    units-per-em="1000"
    panose-1="2 0 0 0 0 0 0 0 0 0"
    ascent="800"
    descent="-200"
    x-height="514"
    cap-height="714"
    bbox="-140 -232 1400 978"
    underline-thickness="50"
    underline-position="-250"
    unicode-range="U+000D-FEFF"
  />
<missing-glyph horiz-adv-x="517" 
d="M52 0v714h412v-714h-412zM126 67h266v580h-266v-580z" />
    <glyph glyph-name="fi" unicode="fi" horiz-adv-x="679" 
d="M368 397h-129v-397h-140v397h-75v117h75v37q0 91 55 133.5t148 42.5h66v-117h-64q-65 0 -65 -66v-30h129v-117zM605 602h-142v125h142v-125zM604 514v-514h-140v514h140z" />
    <glyph glyph-name="fl" unicode="fl" horiz-adv-x="678" 
d="M368 397h-129v-397h-140v397h-75v117h75v37q0 91 55 133.5t148 42.5h66v-117h-64q-65 0 -65 -66v-30h129v-117zM464 727h140v-727h-140v727z" />
    <glyph glyph-name=".notdef" horiz-adv-x="517" 
d="M52 0v714h412v-714h-412zM126 67h266v580h-266v-580z" />
    <glyph glyph-name=".null" horiz-adv-x="0" 
 />
    <glyph glyph-name="nonmarkingreturn" horiz-adv-x="333" 
 />
    <glyph glyph-name="NULL" horiz-adv-x="0" 
 />
    <glyph glyph-name="NULL" horiz-adv-x="0" 
 />
    <glyph glyph-name="CR" unicode="&#xd;" horiz-adv-x="278" 
 />
    <glyph glyph-name="space" unicode=" " horiz-adv-x="278" 
 />
    <glyph glyph-name="exclam" unicode="!" horiz-adv-x="345" 
d="M102 714h141v-290l-26 -209h-89l-26 209v290zM249 0h-153v152h153v-152z" />
    <glyph glyph-name="quotedbl" unicode="&#x22;" horiz-adv-x="469" 
d="M72 427v287h127v-287h-127zM270 427v287h127v-287h-127z" />
    <glyph glyph-name="numbersign" unicode="#" horiz-adv-x="641" 
d="M63 520h119l29 180h108l-28 -180h113l29 180h108l-28 -180h97v-106h-114l-20 -128h101v-106h-117l-29 -180h-110l29 180h-113l-28 -180h-110l28 180h-96v106h113l21 128h-102v106zM274 414l-20 -128h113l20 128h-113z" />
    <glyph glyph-name="dollar" unicode="$" horiz-adv-x="653" 
d="M358 419l48 -9q193 -37 193 -203q0 -88 -63.5 -150t-178.5 -70v-85h-66v86q-111 9 -173.5 68.5t-73.5 161.5h142q8 -46 36 -72.5t69 -32.5v192l-48 10q-177 37 -177 189q0 84 60 143t165 67v84h67v-86q93 -10 153 -65t70 -140h-141q-6 33 -27.5 54.5t-54.5 26.5v-169z
M372 290l-14 3v-182q43 2 70.5 26t27.5 62q0 73 -84 91zM209 510q0 -33 19.5 -51.5t62.5 -27.5v159q-36 -3 -59 -25t-23 -55z" />
    <glyph glyph-name="percent" unicode="%" horiz-adv-x="880" 
d="M203 714q81 0 124 -52.5t43 -136.5t-43 -136.5t-124 -52.5t-123 52.5t-42 136.5t42 136.5t123 52.5zM203 418q74 0 74 107q0 48 -18.5 77.5t-55.5 29.5t-55 -29.5t-18 -77.5q0 -107 73 -107zM676 365q80 0 123 -52.5t43 -136.5t-43 -136.5t-123 -52.5q-81 0 -124 52.5
t-43 136.5t43 136.5t124 52.5zM676 69q37 0 55.5 29t18.5 78q0 48 -18.5 77.5t-55.5 29.5t-55.5 -29.5t-18.5 -77.5q0 -107 74 -107zM280 0h-102l424 700h101z" />
    <glyph glyph-name="ampersand" unicode="&#x26;" horiz-adv-x="767" 
d="M534 354h135q-17 -114 -78 -201l151 -153h-169l-54 55h-26q-87 -68 -197 -68q-111 0 -177.5 55.5t-66.5 153.5q0 114 118 188v26q-31 38 -45 67.5t-14 70.5q0 73 51 119.5t136 46.5q86 0 142.5 -45t56.5 -120q0 -52 -30.5 -89.5t-95.5 -84.5l126 -131q29 47 37 110z
M304 107q67 0 116 46l-152 156l-23 -16q-54 -38 -54 -93q0 -43 30.5 -68t82.5 -25zM302 609q-30 0 -48.5 -17t-18.5 -46q0 -11 3.5 -21.5t6.5 -17.5t11.5 -17.5t12 -14l14.5 -14.5l12 -12q5 4 19 15t19 15t15 13.5t13.5 16.5t7 17t3.5 21q0 29 -19.5 45.5t-50.5 16.5z" />
    <glyph glyph-name="quotesingle" unicode="'" horiz-adv-x="271" 
d="M72 427v287h127v-287h-127z" />
    <glyph glyph-name="parenleft" unicode="(" horiz-adv-x="325" 
d="M165 311q0 -235 156 -452h-122q-155 186 -155 452q0 258 152 448h122q-153 -215 -153 -448z" />
    <glyph glyph-name="parenright" unicode=")" horiz-adv-x="325" 
d="M160 311q0 233 -153 448h122q152 -190 152 -448q0 -266 -155 -452h-122q156 217 156 452z" />
    <glyph glyph-name="asterisk" unicode="*" horiz-adv-x="496" 
d="M200 714h97l-7 -159l150 56l31 -93l-154 -44l99 -125l-79 -58l-90 132l-88 -132l-78 58l98 125l-153 44l30 93l149 -56z" />
    <glyph glyph-name="plus" unicode="+" horiz-adv-x="673" 
d="M277 349v197h118v-197h199v-119h-199v-198h-118v198h-198v119h198z" />
    <glyph glyph-name="comma" unicode="," horiz-adv-x="293" 
d="M137 0h-68v152h154v-177l-77 -117h-85l76 117v25z" />
    <glyph glyph-name="hyphen" unicode="-" horiz-adv-x="397" 
d="M350 222h-303v121h303v-121z" />
    <glyph glyph-name="period" unicode="." horiz-adv-x="293" 
d="M223 0h-154v152h154v-152z" />
    <glyph glyph-name="slash" unicode="/" horiz-adv-x="439" 
d="M115 -141h-117l302 900h114z" />
    <glyph glyph-name="zero" unicode="0" horiz-adv-x="646" 
d="M323 714q123 0 198.5 -90.5t75.5 -273.5q0 -182 -75.5 -272.5t-198.5 -90.5t-198.5 90.5t-75.5 272.5q0 183 75.5 273.5t198.5 90.5zM323 115q130 0 130 235q0 236 -130 236q-129 0 -129 -236q0 -235 129 -235z" />
    <glyph glyph-name="one" unicode="1" horiz-adv-x="532" 
d="M53 0v125h158v431h-25l-134 -91v143l134 92h169v-575h144v-125h-446z" />
    <glyph glyph-name="two" unicode="2" horiz-adv-x="607" 
d="M193 489h-144q6 109 74 167t182 58q108 0 175.5 -59.5t67.5 -165.5q0 -123 -130 -224l-147 -114v-26h296v-125h-517v150l240 179q52 37 82.5 74.5t30.5 82.5q0 49 -27.5 74.5t-74.5 25.5q-98 0 -108 -97z" />
    <glyph glyph-name="three" unicode="3" horiz-adv-x="604" 
d="M73 700h450v-147l-134 -99v-27q75 -6 123.5 -58.5t48.5 -142.5q0 -110 -74 -174.5t-193 -64.5q-116 0 -190 64.5t-76 161.5h144q6 -47 38.5 -72.5t83.5 -25.5q57 0 90 30.5t33 81.5q0 53 -32 84t-91 31q-40 0 -64 -7v119l134 99v26h-291v121z" />
    <glyph glyph-name="four" unicode="4" horiz-adv-x="634" 
d="M508 275h87v-125h-87v-150h-139v150h-333v151l306 399h166v-425zM171 275h203v263h-26l-177 -237v-26z" />
    <glyph glyph-name="five" unicode="5" horiz-adv-x="624" 
d="M353 477q97 0 160.5 -65.5t63.5 -170.5q0 -113 -73 -183.5t-186 -70.5q-119 0 -189.5 63t-76.5 163h144q12 -98 117 -98q56 0 88 33.5t32 90.5q0 60 -32.5 92.5t-86.5 32.5q-72 0 -111 -52h-134l31 388h432v-121h-320l-11 -143h26q55 41 126 41z" />
    <glyph glyph-name="six" unicode="6" horiz-adv-x="622" 
d="M359 465q96 0 161 -64.5t65 -165.5q0 -105 -71 -176.5t-186 -71.5q-129 0 -204 83.5t-75 266.5q0 171 71 274t212 103q94 0 159.5 -53t75.5 -132h-143q-19 66 -95 66q-62 0 -99.5 -47t-42.5 -138h26q48 55 146 55zM325 107q52 0 83.5 32t31.5 91q0 58 -31.5 89.5
t-84.5 31.5t-84.5 -31t-31.5 -89q0 -59 32.5 -91.5t84.5 -32.5z" />
    <glyph glyph-name="seven" unicode="7" horiz-adv-x="573" 
d="M525 550l-280 -550h-150l281 550v25h-329v125h478v-150z" />
    <glyph glyph-name="eight" unicode="8" horiz-adv-x="632" 
d="M482 384v-26q41 -17 72.5 -58t31.5 -103q0 -89 -71.5 -149.5t-198.5 -60.5t-198.5 60.5t-71.5 149.5q0 62 31.5 103t72.5 58v26q-81 43 -81 142q0 81 67 134.5t180 53.5t180 -53.5t67 -134.5q0 -53 -24.5 -89t-56.5 -53zM316 603q-48 0 -78 -26t-30 -66q0 -41 29.5 -67
t78.5 -26q50 0 79 25.5t29 67.5q0 40 -29.5 66t-78.5 26zM316 107q61 0 94 29.5t33 74.5q0 44 -33.5 74t-93.5 30q-61 0 -94 -29.5t-33 -74.5t33 -74.5t94 -29.5z" />
    <glyph glyph-name="nine" unicode="9" horiz-adv-x="622" 
d="M263 236q-96 0 -161 64.5t-65 165.5q0 105 71 176.5t186 71.5q129 0 204 -83.5t75 -266.5q0 -171 -71 -274t-212 -103q-94 0 -159.5 53t-75.5 132h143q19 -66 95 -66q62 0 99.5 47t42.5 138h-26q-48 -55 -146 -55zM297 594q-52 0 -83.5 -32t-31.5 -91q0 -58 31.5 -89.5
t84.5 -31.5t84.5 31t31.5 89q0 59 -32.5 91.5t-84.5 32.5z" />
    <glyph glyph-name="colon" unicode=":" horiz-adv-x="293" 
d="M223 0h-154v152h154v-152zM223 362h-154v152h154v-152z" />
    <glyph glyph-name="semicolon" unicode=";" horiz-adv-x="293" 
d="M137 0h-68v152h154v-177l-77 -117h-85l76 117v25zM223 362h-154v152h154v-152z" />
    <glyph glyph-name="less" unicode="&#x3c;" horiz-adv-x="662" 
d="M583 137v-123l-504 227v96l504 227v-123l-315 -139v-26z" />
    <glyph glyph-name="equal" unicode="=" horiz-adv-x="672" 
d="M593 245v-119h-514v119h514zM593 452v-119h-514v119h514z" />
    <glyph glyph-name="greater" unicode="&#x3e;" horiz-adv-x="662" 
d="M79 14v123l314 139v26l-314 139v123l504 -227v-96z" />
    <glyph glyph-name="question" unicode="?" horiz-adv-x="578" 
d="M280 727q119 0 182 -58t63 -150q0 -67 -30 -106t-91 -80q-37 -26 -50.5 -43.5t-13.5 -48.5v-26h-143v26q0 57 21.5 91t76.5 75q4 3 19.5 14t19 14t15 12.5t14 15t8.5 15t7.5 19t1.5 21.5q0 37 -25 61t-71 24q-101 0 -105 -105h-143q2 100 65 164.5t179 64.5zM344 0h-153
v152h153v-152z" />
    <glyph glyph-name="at" unicode="@" horiz-adv-x="976" 
d="M688 -61l29 -53q-116 -76 -264 -76q-183 0 -292.5 110t-109.5 290q0 209 131 346.5t341 137.5q168 0 285 -100.5t117 -266.5q0 -128 -59.5 -211t-166.5 -83q-99 0 -126 61h-19q-45 -61 -127 -61q-76 0 -118.5 48.5t-42.5 133.5q0 102 59.5 176t153.5 74q73 0 100 -47h19
l8 33h112l-42 -254q-5 -40 -5 -45q0 -53 55 -53q52 0 91.5 57.5t39.5 170.5q0 136 -93 221.5t-249 85.5q-171 0 -283.5 -117t-112.5 -306q0 -54 12 -103t39 -93t66 -76t96 -50.5t126 -18.5q125 0 230 69zM460 123q48 0 78.5 46t30.5 111q0 96 -73 96q-48 0 -78 -46.5
t-30 -110.5q0 -96 72 -96z" />
    <glyph glyph-name="A" unicode="A" horiz-adv-x="722" 
d="M553 0l-58 193h-272l-58 -193h-147l227 714h231l228 -714h-151zM336 571l-75 -248h194l-75 248h-44z" />
    <glyph glyph-name="B" unicode="B" horiz-adv-x="724" 
d="M580 384v-26q40 -18 66.5 -59t26.5 -92q0 -94 -62 -150.5t-184 -56.5h-344v714h335q113 0 174 -54t61 -135q0 -48 -19.5 -85.5t-53.5 -55.5zM232 431h168q100 0 100 80q0 79 -101 79h-167v-159zM232 127h173q115 0 115 88q0 91 -113 91h-175v-179z" />
    <glyph glyph-name="C" unicode="C" horiz-adv-x="737" 
d="M534 228h155q-16 -109 -95.5 -175t-202.5 -66q-161 0 -251.5 101.5t-90.5 268.5t91 268.5t251 101.5q117 0 195 -60.5t96 -160.5h-156q-25 88 -135 88q-92 0 -140.5 -66.5t-48.5 -170.5t48.5 -170.5t140.5 -66.5q57 0 94.5 28.5t48.5 79.5z" />
    <glyph glyph-name="D" unicode="D" horiz-adv-x="761" 
d="M83 714h298q161 0 246 -96t85 -261t-85 -261t-246 -96h-298v714zM232 133h130q102 0 149.5 61.5t47.5 162.5t-47.5 162.5t-149.5 61.5h-130v-448z" />
    <glyph glyph-name="E" unicode="E" horiz-adv-x="666" 
d="M232 133h390v-133h-539v714h528v-133h-379v-150h295v-130h-295v-168z" />
    <glyph glyph-name="F" unicode="F" horiz-adv-x="650" 
d="M610 581h-378v-164h298v-130h-298v-287h-149v714h527v-133z" />
    <glyph glyph-name="G" unicode="G" horiz-adv-x="761" 
d="M389 397h318v-84q0 -65 -18 -121.5t-54 -103.5t-98 -74t-143 -27q-164 0 -254.5 102t-90.5 268t91 268t255 102q120 0 196 -58.5t97 -158.5h-155q-25 84 -139 84q-93 0 -142.5 -65.5t-49.5 -171.5t50 -172t143 -66q79 0 120 42t43 114h-169v122z" />
    <glyph glyph-name="H" unicode="H" horiz-adv-x="779" 
d="M548 714h149v-714h-149v299h-316v-299h-149v714h149v-278h316v278z" />
    <glyph glyph-name="I" unicode="I" horiz-adv-x="324" 
d="M88 714h149v-714h-149v714z" />
    <glyph glyph-name="J" unicode="J" horiz-adv-x="604" 
d="M280 -13q-111 0 -179 62.5t-72 177.5h148q8 -107 102 -107q95 0 95 121v473h149v-474q0 -120 -64.5 -186.5t-178.5 -66.5z" />
    <glyph glyph-name="K" unicode="K" horiz-adv-x="753" 
d="M83 0v714h149v-295l292 295h174l-214 -224l248 -490h-164l-181 359h-26l-129 -129v-230h-149z" />
    <glyph glyph-name="L" unicode="L" horiz-adv-x="651" 
d="M232 136h378v-136h-527v714h149v-578z" />
    <glyph glyph-name="M" unicode="M" horiz-adv-x="883" 
d="M83 0v714h229l117 -288h26l116 288h230v-714h-139v532h-26l-120 -288h-149l-119 288h-26v-532h-139z" />
    <glyph glyph-name="N" unicode="N" horiz-adv-x="782" 
d="M564 714h136v-714h-193l-262 484h-26v-484h-136v714h193l262 -484h26v484z" />
    <glyph glyph-name="O" unicode="O" horiz-adv-x="794" 
d="M397 727q165 0 256.5 -103.5t91.5 -266.5t-91.5 -266.5t-256.5 -103.5t-256.5 103.5t-91.5 266.5t91.5 266.5t256.5 103.5zM397 120q96 0 145.5 66t49.5 171t-49.5 171t-145.5 66q-95 0 -145 -66.5t-50 -170.5t50 -170.5t145 -66.5z" />
    <glyph glyph-name="P" unicode="P" horiz-adv-x="715" 
d="M83 714h326q123 0 190.5 -60t67.5 -167q0 -109 -67.5 -170t-190.5 -61h-177v-256h-149v714zM232 387h156q67 0 96.5 24.5t29.5 73.5t-29.5 73.5t-96.5 24.5h-156v-196z" />
    <glyph glyph-name="Q" unicode="Q" horiz-adv-x="794" 
d="M397 727q165 0 256.5 -103.5t91.5 -266.5q0 -177 -105 -280l91 -154h-135l-53 91q-68 -27 -146 -27q-165 0 -256.5 103.5t-91.5 266.5t91.5 266.5t256.5 103.5zM397 120q40 0 77 14l-113 196h130l69 -117q32 62 32 144q0 105 -49.5 171t-145.5 66q-95 0 -145 -66.5
t-50 -170.5t50 -170.5t145 -66.5z" />
    <glyph glyph-name="R" unicode="R" horiz-adv-x="726" 
d="M83 714h336q119 0 185 -58.5t66 -163.5q0 -135 -106 -191l107 -301h-150l-96 269h-193v-269h-149v714zM232 583v-187h166q64 0 92 23.5t28 70.5q0 50 -30.5 71.5t-104.5 21.5h-151z" />
    <glyph glyph-name="S" unicode="S" horiz-adv-x="690" 
d="M619 518h-152q-18 81 -130 81q-51 0 -84 -20.5t-33 -60.5q0 -57 89 -73l133 -24q194 -36 194 -209q0 -96 -74 -160.5t-213 -64.5q-134 0 -214 62t-91 169h152q17 -103 159 -103q60 0 95.5 24t35.5 66q0 40 -24.5 60t-72.5 29l-136 24q-183 32 -183 195q0 92 72 153
t197 61q117 0 192.5 -56t87.5 -153z" />
    <glyph glyph-name="T" unicode="T" horiz-adv-x="625" 
d="M609 714v-131h-222v-583h-149v583h-222v131h593z" />
    <glyph glyph-name="U" unicode="U" horiz-adv-x="760" 
d="M530 714h149v-451q0 -133 -77.5 -204.5t-222.5 -71.5q-143 0 -220.5 71.5t-77.5 204.5v451h149v-448q0 -67 39.5 -106.5t110.5 -39.5q72 0 111 39.5t39 106.5v448z" />
    <glyph glyph-name="V" unicode="V" horiz-adv-x="706" 
d="M229 0l-211 714h155l158 -570h46l158 570h153l-211 -714h-248z" />
    <glyph glyph-name="W" unicode="W" horiz-adv-x="927" 
d="M371 498h186l90 -321h25l61 537h141l-85 -714h-218l-94 359h-26l-95 -359h-218l-85 714h143l60 -537h26z" />
    <glyph glyph-name="X" unicode="X" horiz-adv-x="694" 
d="M511 0l-149 294h-31l-152 -294h-160l197 375l-170 339h153l133 -262h31l137 262h151l-173 -335l197 -379h-164z" />
    <glyph glyph-name="Y" unicode="Y" horiz-adv-x="679" 
d="M325 429h28l153 285h158l-250 -460v-254h-150v254l-249 460h157z" />
    <glyph glyph-name="Z" unicode="Z" horiz-adv-x="666" 
d="M606 714v-161l-372 -392v-28h388v-133h-578v161l374 392v28h-347v133h535z" />
    <glyph glyph-name="bracketleft" unicode="[" horiz-adv-x="381" 
d="M328 -141h-259v900h259v-103h-138v-694h138v-103z" />
    <glyph glyph-name="backslash" unicode="\" horiz-adv-x="439" 
d="M441 -141h-117l-299 900h114z" />
    <glyph glyph-name="bracketright" unicode="]" horiz-adv-x="381" 
d="M312 -141h-259v103h138v694h-138v103h259v-900z" />
    <glyph glyph-name="asciicircum" unicode="^" horiz-adv-x="588" 
d="M168 273h-130l211 420h91l210 -420h-129l-114 231h-26z" />
    <glyph glyph-name="underscore" unicode="_" horiz-adv-x="513" 
d="M514 -154h-515v91h515v-91z" />
    <glyph glyph-name="grave" unicode="`" horiz-adv-x="320" 
d="M156 582l-116 145h147l93 -145h-124z" />
    <glyph glyph-name="a" unicode="a" horiz-adv-x="586" 
d="M390 0v44h-26q-49 -57 -144 -57q-84 0 -133 49.5t-49 121.5q0 69 52 120t157 51h137v13q0 80 -91 80q-81 0 -87 -55h-139q2 73 63 116.5t156 43.5q110 0 171.5 -47t61.5 -146v-334h-129zM269 98q51 0 83 30t32 78v32h-110q-96 0 -96 -69q0 -71 91 -71z" />
    <glyph glyph-name="b" unicode="b" 
d="M379 527q100 0 159 -76t59 -194q0 -119 -59 -194.5t-159 -75.5q-96 0 -144 60h-26v-47h-135v727h140v-260h26q45 60 139 60zM334 103q60 0 91.5 43t31.5 111q0 67 -31.5 110t-91.5 43q-62 0 -93.5 -43.5t-31.5 -109.5t31.5 -110t93.5 -44z" />
    <glyph glyph-name="c" unicode="c" horiz-adv-x="583" 
d="M401 173h138q-10 -84 -74.5 -135t-160.5 -51q-119 0 -189 73.5t-70 196.5q0 122 70 196t189 74q96 0 158.5 -48.5t72.5 -128.5h-139q-17 60 -91 60q-62 0 -91 -42t-29 -110t29.5 -111.5t90.5 -43.5q83 0 96 70z" />
    <glyph glyph-name="d" unicode="d" 
d="M263 527q94 0 139 -60h26v260h140v-727h-135v47h-26q-48 -60 -144 -60q-100 0 -159 75.5t-59 194.5t59 194.5t159 75.5zM308 103q62 0 93.5 44t31.5 110t-31.5 109.5t-93.5 43.5q-60 0 -91.5 -43t-31.5 -110q0 -68 31.5 -111t91.5 -43z" />
    <glyph glyph-name="e" unicode="e" horiz-adv-x="597" 
d="M552 283v-42h-368q6 -138 125 -138q76 0 96 54h142q-16 -80 -77 -125t-163 -45q-121 0 -191.5 74t-70.5 198q0 123 70 195.5t189 72.5q114 0 180 -68t68 -176zM303 422q-92 0 -114 -88h220q-14 88 -106 88z" />
    <glyph glyph-name="f" unicode="f" horiz-adv-x="399" 
d="M368 397h-129v-397h-140v397h-75v117h75v37q0 91 55 133.5t148 42.5h66v-117h-64q-65 0 -65 -66v-30h129v-117z" />
    <glyph glyph-name="g" unicode="g" horiz-adv-x="643" 
d="M434 514h135v-489q0 -108 -71.5 -172t-186.5 -64q-107 0 -173 45t-74 128h139q11 -63 106 -63q120 0 120 138v30h-26q-42 -59 -134 -59q-102 0 -163 72t-61 187t61.5 187.5t163.5 72.5q99 0 138 -60h26v47zM308 125q60 0 93 40.5t33 101.5q0 63 -33 103t-93 40
q-58 0 -90.5 -39.5t-32.5 -103.5t32.5 -103t90.5 -39z" />
    <glyph glyph-name="h" unicode="h" horiz-adv-x="635" 
d="M568 0h-140v291q0 112 -100 112q-51 0 -82.5 -38t-31.5 -92v-273h-140v727h140v-260h26q45 60 140 60q94 0 141 -55t47 -156v-316z" />
    <glyph glyph-name="i" unicode="i" horiz-adv-x="290" 
d="M216 602h-142v125h142v-125zM215 514v-514h-140v514h140z" />
    <glyph glyph-name="j" unicode="j" horiz-adv-x="301" 
d="M227 602h-142v125h142v-125zM29 -200h-65v117h46q76 0 76 79v518h140v-530q0 -96 -53.5 -140t-143.5 -44z" />
    <glyph glyph-name="k" unicode="k" horiz-adv-x="599" 
d="M588 0h-147l-119 241h-26l-81 -91v-150h-141v727h141v-414l190 201h156l-146 -159z" />
    <glyph glyph-name="l" unicode="l" horiz-adv-x="288" 
d="M74 727h140v-727h-140v727z" />
    <glyph glyph-name="m" unicode="m" horiz-adv-x="906" 
d="M660 527q90 0 134.5 -53.5t44.5 -149.5v-324h-140v297q0 106 -78 106q-46 0 -70 -31.5t-24 -84.5v-287h-140v297q0 106 -78 106q-48 0 -71.5 -35.5t-23.5 -91.5v-276h-140v514h135v-47h26q37 60 128 60t131 -60h26q45 60 140 60z" />
    <glyph glyph-name="n" unicode="n" horiz-adv-x="635" 
d="M568 0h-140v291q0 54 -25.5 83t-74.5 29q-51 0 -82.5 -38t-31.5 -92v-273h-140v514h135v-47h26q47 60 143 60q95 0 142.5 -55t47.5 -156v-316z" />
    <glyph glyph-name="o" unicode="o" horiz-adv-x="622" 
d="M311 527q122 0 194 -74t72 -196t-72 -196t-194 -74q-121 0 -193.5 74.5t-72.5 195.5t72.5 195.5t193.5 74.5zM311 103q63 0 94.5 43.5t31.5 110.5q0 66 -31.5 109.5t-94.5 43.5q-62 0 -94 -43.5t-32 -109.5q0 -67 32 -110.5t94 -43.5z" />
    <glyph glyph-name="p" unicode="p" 
d="M334 410q-62 0 -93.5 -43.5t-31.5 -109.5t31.5 -110t93.5 -44q60 0 91.5 43t31.5 111q0 67 -31.5 110t-91.5 43zM74 514h135v-47h26q48 60 144 60q100 0 159 -75.5t59 -194.5q0 -120 -59 -195t-159 -75q-94 0 -139 60h-26v-247h-140v714z" />
    <glyph glyph-name="q" unicode="q" 
d="M308 410q-60 0 -91.5 -43t-31.5 -110q0 -68 31.5 -111t91.5 -43q62 0 93.5 44t31.5 110t-31.5 109.5t-93.5 43.5zM433 514h135v-714h-140v247h-26q-45 -60 -139 -60q-100 0 -159 75t-59 195q0 119 59 194.5t159 75.5q96 0 144 -60h26v47z" />
    <glyph glyph-name="r" unicode="r" horiz-adv-x="448" 
d="M421 514v-130h-50q-157 0 -157 -159v-225h-140v514h135v-58h26q39 58 138 58h48z" />
    <glyph glyph-name="s" unicode="s" horiz-adv-x="546" 
d="M492 373h-139q-9 46 -83 46q-75 0 -75 -44q0 -19 12.5 -27.5t42.5 -14.5l93 -14q164 -25 164 -165q0 -69 -60 -118t-168 -49q-114 0 -173.5 46t-68.5 129h139q10 -67 102 -67q89 0 89 56q0 25 -17 37.5t-57 19.5l-100 16q-138 26 -138 142q0 71 55.5 116t163.5 45
q95 0 152.5 -42t65.5 -112z" />
    <glyph glyph-name="t" unicode="t" horiz-adv-x="405" 
d="M239 514h113v-117h-113v-221q0 -57 66 -57h47v-119h-49q-97 0 -150.5 35.5t-53.5 123.5v238h-75v117h75v144h140v-144z" />
    <glyph glyph-name="u" unicode="u" horiz-adv-x="635" 
d="M67 514h140v-291q0 -54 25.5 -83t74.5 -29q51 0 82.5 38t31.5 92v273h140v-514h-135v47h-26q-46 -60 -143 -60q-95 0 -142.5 55t-47.5 156v316z" />
    <glyph glyph-name="v" unicode="v" horiz-adv-x="578" 
d="M166 0l-146 514h143l106 -389h43l102 389h143l-148 -514h-243z" />
    <glyph glyph-name="w" unicode="w" horiz-adv-x="750" 
d="M306 373h141l64 -212h26l43 353h131l-71 -514h-179l-73 241h-26l-73 -241h-180l-70 514h133l44 -353h26z" />
    <glyph glyph-name="x" unicode="x" horiz-adv-x="604" 
d="M420 0l-100 189h-37l-102 -189h-148l147 264l-132 250h145l92 -177h37l94 177h143l-134 -248l146 -266h-151z" />
    <glyph glyph-name="y" unicode="y" horiz-adv-x="594" 
d="M267 -200h-140l109 253l-218 461h146l128 -274h26l118 274h141z" />
    <glyph glyph-name="z" unicode="z" horiz-adv-x="554" 
d="M504 0h-454v142l257 229v26h-241v117h430v-143l-257 -229v-26h265v-116z" />
    <glyph glyph-name="braceleft" unicode="{" horiz-adv-x="427" 
d="M201 322v-26q67 -21 67 -113v-115q0 -55 21 -80.5t68 -25.5h35v-103h-56q-88 0 -138.5 49.5t-50.5 133.5v118q0 48 -16.5 71.5t-54.5 23.5h-24v108h24q38 0 54.5 23.5t16.5 71.5v118q0 84 50.5 133.5t138.5 49.5h56v-103h-35q-47 0 -68 -25.5t-21 -80.5v-115
q0 -92 -67 -113z" />
    <glyph glyph-name="bar" unicode="|" horiz-adv-x="270" 
d="M79 -141v900h112v-900h-112z" />
    <glyph glyph-name="braceright" unicode="}" horiz-adv-x="427" 
d="M226 296v26q-67 21 -67 113v115q0 55 -21 80.5t-68 25.5h-35v103h56q88 0 138.5 -49.5t50.5 -133.5v-118q0 -48 16.5 -71.5t54.5 -23.5h24v-108h-24q-38 0 -54.5 -23.5t-16.5 -71.5v-118q0 -84 -50.5 -133.5t-138.5 -49.5h-56v103h35q47 0 68 25.5t21 80.5v115
q0 92 67 113z" />
    <glyph glyph-name="asciitilde" unicode="~" horiz-adv-x="671" 
d="M496 368h96q0 -89 -38 -133t-106 -44q-31 0 -64.5 14t-57.5 31.5t-52 31.5t-49 14q-50 0 -50 -71h-96q0 89 37.5 133t105.5 44q40 0 82.5 -23t79 -45.5t62.5 -22.5q50 0 50 71z" />
    <glyph glyph-name="uni00A0" unicode="&#xa0;" horiz-adv-x="278" 
 />
    <glyph glyph-name="exclamdown" unicode="&#xa1;" horiz-adv-x="345" 
d="M243 -200h-141v290l26 209h89l26 -209v-290zM249 362h-153v152h153v-152z" />
    <glyph glyph-name="cent" unicode="&#xa2;" horiz-adv-x="583" 
d="M401 173h138q-10 -79 -67 -129t-145 -56v-68h-53v69q-105 8 -167 81t-62 187t61.5 186t167.5 82v69h53v-68q87 -6 142.5 -53.5t65.5 -122.5h-139q-15 53 -69 59v-304q63 6 74 68zM185 258q0 -59 22 -101t67 -50v300q-45 -9 -67 -50t-22 -99z" />
    <glyph glyph-name="sterling" unicode="&#xa3;" horiz-adv-x="647" 
d="M249 125h365v-125h-568v125h17q69 0 69 86v62h-85v112h85v99q0 104 59.5 167t168.5 63q107 0 166 -59.5t63 -157.5h-144q-2 45 -22 67t-61 22q-87 0 -87 -102v-99h215v-112h-215v-47q0 -50 -26 -75v-26z" />
    <glyph glyph-name="currency" unicode="&#xa4;" horiz-adv-x="722" 
d="M581 0l-69 67q-67 -48 -150 -48q-85 0 -152 48l-68 -67l-63 62l67 68q-48 68 -48 153q0 83 48 151l-67 68l63 63l68 -68q67 48 152 48q83 0 150 -48l69 68l62 -63l-67 -69q48 -67 48 -150q0 -84 -48 -152l67 -69zM362 104q71 0 120 51.5t49 127.5q0 75 -49 125.5
t-120 50.5q-72 0 -122 -50.5t-50 -125.5q0 -76 50 -127.5t122 -51.5z" />
    <glyph glyph-name="yen" unicode="&#xa5;" horiz-adv-x="655" 
d="M81 317v69h94l-150 314h144l144 -314h28l145 314h144l-150 -314h93v-69h-126l-29 -61h155v-69h-174v-187h-144v187h-174v69h156l-30 61h-126z" />
    <glyph glyph-name="brokenbar" unicode="&#xa6;" horiz-adv-x="270" 
d="M79 407v352h112v-352h-112zM79 -141v352h112v-352h-112z" />
    <glyph glyph-name="section" unicode="&#xa7;" horiz-adv-x="631" 
d="M237 366q-23 -8 -39.5 -27.5t-16.5 -46.5q0 -56 69 -75q14 -4 41 -12t59.5 -17.5t44.5 -13.5q21 10 37.5 29.5t16.5 44.5q0 29 -16 46.5t-52 28.5q-3 1 -144 43zM577 269q0 -48 -28.5 -83t-61.5 -47v-26q47 -37 47 -111q0 -76 -62 -126t-165 -50q-101 0 -163 53t-67 153
h129q6 -95 107 -95q45 0 68.5 19.5t23.5 49.5q0 48 -68 68l-131 36q-78 22 -115.5 59.5t-37.5 101.5q0 50 28.5 84t63.5 46v26q-47 37 -47 111q0 77 61 126.5t164 49.5q101 0 162.5 -52t66.5 -152h-128q-6 93 -107 93q-46 0 -68.5 -19.5t-22.5 -48.5q0 -50 67 -69
q18 -5 50.5 -14t47.5 -13.5t41 -12.5t38 -13.5t31 -15t27.5 -17.5t20 -20t16.5 -25t8.5 -30t3.5 -36z" />
    <glyph glyph-name="dieresis" unicode="&#xa8;" horiz-adv-x="394" 
d="M354 602h-117v125h117v-125zM158 602h-118v125h118v-125z" />
    <glyph glyph-name="copyright" unicode="&#xa9;" horiz-adv-x="850" 
d="M514 298h87q-10 -62 -54 -100.5t-114 -38.5q-87 0 -136 55t-49 142q0 88 49 143t136 55q68 0 112 -35.5t53 -93.5h-88q-12 52 -77 52q-96 0 -96 -121q0 -55 23.5 -87.5t72.5 -32.5q70 0 81 62zM425 727q158 0 264.5 -105.5t106.5 -264.5t-106 -264.5t-265 -105.5
t-264.5 105.5t-105.5 264.5q0 158 106.5 264t263.5 106zM425 47q133 0 219.5 88.5t86.5 221.5t-86.5 222t-219.5 89t-218.5 -88.5t-85.5 -222.5t85.5 -222t218.5 -88z" />
    <glyph glyph-name="ordfeminine" unicode="&#xaa;" horiz-adv-x="438" 
d="M292 335v33h-16q-39 -42 -108 -42q-62 0 -97.5 36.5t-35.5 88.5q0 51 37 88t113 37h103v12q0 58 -70 58q-59 0 -67 -43h-94q3 54 46 86t111 32q78 0 122.5 -34t44.5 -105v-247h-89zM198 403q39 0 64.5 23t25.5 59v27h-83q-35 0 -55.5 -14.5t-20.5 -39.5q0 -26 18.5 -40.5
t50.5 -14.5z" />
    <glyph glyph-name="guillemotleft" unicode="&#xab;" horiz-adv-x="657" 
d="M181 302v-26l171 -183h-151l-149 155v82l149 154h151zM434 302v-26l171 -183h-151l-149 155v82l149 154h151z" />
    <glyph glyph-name="logicalnot" unicode="&#xac;" horiz-adv-x="682" 
d="M485 100v192h-406v119h524v-311h-118z" />
    <glyph glyph-name="uni00AD" unicode="&#xad;" horiz-adv-x="396" 
d="M350 222h-303v121h303v-121z" />
    <glyph glyph-name="registered" unicode="&#xae;" horiz-adv-x="850" 
d="M280 547h182q64 0 99 -31.5t35 -88.5q0 -70 -55 -101l57 -160h-88l-51 142h-93v-142h-86v381zM366 381h82q60 0 60 45q0 46 -60 46h-82v-91zM425 727q158 0 264.5 -105.5t106.5 -264.5t-106 -264.5t-265 -105.5t-264.5 105.5t-105.5 264.5q0 158 106.5 264t263.5 106z
M425 47q133 0 219.5 88.5t86.5 221.5t-86.5 222t-219.5 89t-218.5 -88.5t-85.5 -222.5t85.5 -222t218.5 -88z" />
    <glyph glyph-name="overscore" unicode="&#xaf;" horiz-adv-x="382" 
d="M342 619h-302v85h302v-85z" />
    <glyph glyph-name="degree" unicode="&#xb0;" horiz-adv-x="464" 
d="M429 523q0 -85 -56.5 -141t-141.5 -56q-84 0 -140 56t-56 141t56 141.5t140 56.5q85 0 141.5 -56.5t56.5 -141.5zM231 410q47 0 77.5 32.5t30.5 80.5t-30.5 81t-77.5 33t-77 -32.5t-30 -81.5q0 -48 30 -80.5t77 -32.5z" />
    <glyph glyph-name="plusminus" unicode="&#xb1;" horiz-adv-x="673" 
d="M277 404v165h118v-165h199v-119h-199v-166h199v-119h-515v119h198v166h-197v119h197z" />
    <glyph glyph-name="twosuperior" unicode="&#xb2;" horiz-adv-x="370" 
d="M178 411h156v-78h-299v96l111 69q41 25 63.5 46.5t22.5 46.5q0 49 -51 49q-54 0 -55 -51h-91q2 65 41.5 98.5t107.5 33.5q62 0 100.5 -33t38.5 -92q0 -72 -75 -121l-70 -45v-19z" />
    <glyph glyph-name="threesuperior" unicode="&#xb3;" horiz-adv-x="369" 
d="M245 581v-18q37 -6 63 -33t26 -73q0 -60 -42 -95.5t-109 -35.5q-69 0 -110.5 36.5t-43.5 94.5h90q4 -50 64 -50q29 0 45 14t16 38q0 26 -16 39.5t-44 13.5q-22 0 -37 -5v72l59 39v18h-151v78h260v-94z" />
    <glyph glyph-name="acute" unicode="&#xb4;" horiz-adv-x="320" 
d="M280 727l-117 -145h-123l92 145h148z" />
    <glyph glyph-name="mu" unicode="&#xb5;" 
d="M74 514h140v-291q0 -54 25.5 -83t74.5 -29q51 0 82.5 38t31.5 92v273h140v-514h-135v47h-26q-47 -60 -143 -60q-22 0 -50 5v-192h-140v714z" />
    <glyph glyph-name="paragraph" unicode="&#xb6;" horiz-adv-x="712" 
d="M372 -177h-118v491q-97 0 -158.5 50t-61.5 150q0 101 58.5 150.5t161.5 49.5h414v-98h-80v-793h-118v793h-98v-793z" />
    <glyph glyph-name="middot" unicode="&#xb7;" horiz-adv-x="293" 
d="M223 264h-154v152h154v-152z" />
    <glyph glyph-name="cedilla" unicode="&#xb8;" horiz-adv-x="297" 
d="M107 22h51l-30 -80h14q13 10 39 10q33 0 55 -23.5t22 -62.5q0 -40 -28.5 -67.5t-84.5 -27.5q-48 0 -75.5 24t-29.5 57h72q6 -25 35 -25q16 0 26 9.5t10 25.5t-10 25t-26 9q-19 0 -31 -12h-62z" />
    <glyph glyph-name="onesuperior" unicode="&#xb9;" horiz-adv-x="336" 
d="M216 411h84v-78h-265v78h90v208h-19l-71 -43v85l91 53h90v-303z" />
    <glyph glyph-name="ordmasculine" unicode="&#xba;" horiz-adv-x="455" 
d="M227 721q86 0 139 -56t53 -141q0 -87 -52.5 -142.5t-139.5 -55.5t-139.5 55.5t-52.5 142.5q0 85 53 141t139 56zM227 409q48 0 73 33t25 82q0 48 -25 81t-73 33t-73 -33t-25 -81q0 -49 25 -82t73 -33z" />
    <glyph glyph-name="guillemotright" unicode="&#xbb;" horiz-adv-x="657" 
d="M476 276v26l-171 182h151l149 -154v-82l-149 -155h-151zM223 276v26l-171 182h151l149 -154v-82l-149 -155h-151z" />
    <glyph glyph-name="onequarter" unicode="&#xbc;" horiz-adv-x="876" 
d="M284 0h-102l424 700h101zM216 411h84v-78h-265v78h90v208h-19l-71 -43v85l91 53h90v-303zM794 154h46v-78h-46v-76h-88v76h-181v92l163 213h106v-227zM609 154h100v126h-19l-81 -108v-18z" />
    <glyph glyph-name="onehalf" unicode="&#xbd;" horiz-adv-x="898" 
d="M284 0h-102l424 700h101zM216 411h84v-78h-265v78h90v208h-19l-71 -43v85l91 53h90v-303zM706 78h156v-78h-299v96l111 69q41 25 63.5 46.5t22.5 46.5q0 49 -51 49q-54 0 -55 -51h-91q2 65 41.5 98.5t107.5 33.5q62 0 100.5 -33t38.5 -92q0 -72 -75 -121l-70 -45v-19z
" />
    <glyph glyph-name="threequarters" unicode="&#xbe;" horiz-adv-x="880" 
d="M289 0h-102l424 700h101zM799 154h46v-78h-46v-76h-88v76h-181v92l163 213h106v-227zM614 154h100v126h-19l-81 -108v-18zM245 581v-18q37 -6 63 -33t26 -73q0 -60 -42 -95.5t-109 -35.5q-69 0 -110.5 36.5t-43.5 94.5h90q4 -50 64 -50q29 0 45 14t16 38q0 26 -16 39.5
t-44 13.5q-22 0 -37 -5v72l59 39v18h-151v78h260v-94z" />
    <glyph glyph-name="questiondown" unicode="&#xbf;" horiz-adv-x="576" 
d="M294 -211q-119 0 -182.5 58.5t-63.5 149.5q0 46 18.5 82t40.5 55.5t63 47.5q37 27 50.5 44.5t13.5 47.5v25h143v-25q0 -56 -20 -87.5t-72 -72.5q-6 -5 -24.5 -18t-24 -17.5t-17 -15.5t-15 -18.5t-7.5 -20t-4 -26.5q0 -37 25.5 -61t71.5 -24q102 0 106 105h142
q-2 -100 -65 -164.5t-179 -64.5zM230 514h153v-152h-153v152z" />
    <glyph glyph-name="Agrave" unicode="&#xc0;" horiz-adv-x="722" 
d="M553 0l-58 193h-272l-58 -193h-147l227 714h231l228 -714h-151zM336 571l-75 -248h194l-75 248h-44zM298 767l-116 129h152l92 -129h-128z" />
    <glyph glyph-name="Aacute" unicode="&#xc1;" horiz-adv-x="722" 
d="M553 0l-58 193h-272l-58 -193h-147l227 714h231l228 -714h-151zM336 571l-75 -248h194l-75 248h-44zM537 896l-117 -129h-127l91 129h153z" />
    <glyph glyph-name="Acircumflex" unicode="&#xc2;" horiz-adv-x="722" 
d="M553 0l-58 193h-272l-58 -193h-147l227 714h231l228 -714h-151zM336 571l-75 -248h194l-75 248h-44zM421 896l109 -129h-111l-47 55h-26l-46 -55h-109l109 129h121z" />
    <glyph glyph-name="Atilde" unicode="&#xc3;" horiz-adv-x="722" 
d="M553 0l-58 193h-272l-58 -193h-147l227 714h231l228 -714h-151zM336 571l-75 -248h194l-75 248h-44zM462 896h64q0 -61 -26 -95.5t-77 -34.5q-34 0 -75.5 23.5t-61.5 23.5q-17 0 -23.5 -11.5t-7.5 -34.5h-63q0 61 25.5 95.5t76.5 34.5q34 0 76 -23t63 -23q27 0 29 45z
" />
    <glyph glyph-name="Adieresis" unicode="&#xc4;" horiz-adv-x="722" 
d="M553 0l-58 193h-272l-58 -193h-147l227 714h231l228 -714h-151zM336 571l-75 -248h194l-75 248h-44zM520 782h-117v114h117v-114zM324 782h-118v114h118v-114z" />
    <glyph glyph-name="Aring" unicode="&#xc5;" horiz-adv-x="722" 
d="M553 0l-58 193h-272l-58 -193h-147l227 714h16q-19 28 -19 63q0 48 35 81.5t83 33.5q50 0 84 -33.5t34 -81.5q0 -35 -19 -63h17l228 -714h-151zM336 571l-75 -248h194l-75 248h-44zM360 726q21 0 36 15t15 36t-15 36t-36 15q-20 0 -35 -15t-15 -36t15 -36t35 -15z" />
    <glyph glyph-name="AE" unicode="&#xc6;" horiz-adv-x="1051" 
d="M519 0v193h-248l-100 -193h-167l384 714h608v-133h-328v-150h244v-130h-244v-168h339v-133h-488zM470 575l-132 -252h181v252h-49z" />
    <glyph glyph-name="Ccedilla" unicode="&#xc7;" horiz-adv-x="737" 
d="M534 228h155q-16 -107 -94.5 -173t-199.5 -68l-17 -45h14q13 10 39 10q33 0 55 -23.5t22 -62.5q0 -40 -28.5 -67.5t-84.5 -27.5q-48 0 -75.5 24t-29.5 57h72q6 -25 35 -25q16 0 26 9.5t10 25.5t-10 25t-26 9q-19 0 -31 -12h-62l40 106q-140 14 -217.5 113.5t-77.5 253.5
q0 167 91 268.5t251 101.5q117 0 195 -60.5t96 -160.5h-156q-25 88 -135 88q-92 0 -140.5 -66.5t-48.5 -170.5t48.5 -170.5t140.5 -66.5q57 0 94.5 28.5t48.5 79.5z" />
    <glyph glyph-name="Egrave" unicode="&#xc8;" horiz-adv-x="666" 
d="M232 133h390v-133h-539v714h528v-133h-379v-150h295v-130h-295v-168zM307 767l-116 129h152l92 -129h-128z" />
    <glyph glyph-name="Eacute" unicode="&#xc9;" horiz-adv-x="666" 
d="M232 133h390v-133h-539v714h528v-133h-379v-150h295v-130h-295v-168zM490 896l-117 -129h-127l91 129h153z" />
    <glyph glyph-name="Ecircumflex" unicode="&#xca;" horiz-adv-x="666" 
d="M232 133h390v-133h-539v714h528v-133h-379v-150h295v-130h-295v-168zM410 896l109 -129h-111l-47 55h-26l-46 -55h-109l109 129h121z" />
    <glyph glyph-name="Edieresis" unicode="&#xcb;" horiz-adv-x="666" 
d="M232 133h390v-133h-539v714h528v-133h-379v-150h295v-130h-295v-168zM504 782h-117v114h117v-114zM308 782h-118v114h118v-114z" />
    <glyph glyph-name="Igrave" unicode="&#xcc;" horiz-adv-x="325" 
d="M88 714h149v-714h-149v714zM102 767l-116 129h152l92 -129h-128z" />
    <glyph glyph-name="Iacute" unicode="&#xcd;" horiz-adv-x="325" 
d="M88 714h149v-714h-149v714zM343 896l-117 -129h-127l91 129h153z" />
    <glyph glyph-name="Icircumflex" unicode="&#xce;" horiz-adv-x="325" 
d="M88 714h149v-714h-149v714zM225 896l109 -129h-111l-47 55h-26l-46 -55h-109l109 129h121z" />
    <glyph glyph-name="Idieresis" unicode="&#xcf;" horiz-adv-x="325" 
d="M88 714h149v-714h-149v714zM321 782h-117v114h117v-114zM125 782h-118v114h118v-114z" />
    <glyph glyph-name="Eth" unicode="&#xd0;" horiz-adv-x="782" 
d="M20 305v114h84v295h298q161 0 246 -96t85 -261t-85 -261t-246 -96h-298v305h-84zM253 133h130q102 0 149.5 61.5t47.5 162.5t-47.5 162.5t-149.5 61.5h-130v-162h176v-114h-176v-172z" />
    <glyph glyph-name="Ntilde" unicode="&#xd1;" horiz-adv-x="782" 
d="M564 714h136v-714h-193l-262 484h-26v-484h-136v714h193l262 -484h26v484zM495 896h64q0 -61 -26 -95.5t-77 -34.5q-34 0 -75.5 23.5t-61.5 23.5q-17 0 -23.5 -11.5t-7.5 -34.5h-63q0 61 25.5 95.5t76.5 34.5q34 0 76 -23t63 -23q27 0 29 45z" />
    <glyph glyph-name="Ograve" unicode="&#xd2;" horiz-adv-x="794" 
d="M397 727q165 0 256.5 -103.5t91.5 -266.5t-91.5 -266.5t-256.5 -103.5t-256.5 103.5t-91.5 266.5t91.5 266.5t256.5 103.5zM397 120q96 0 145.5 66t49.5 171t-49.5 171t-145.5 66q-95 0 -145 -66.5t-50 -170.5t50 -170.5t145 -66.5zM339 767l-116 129h152l92 -129h-128z
" />
    <glyph glyph-name="Oacute" unicode="&#xd3;" horiz-adv-x="794" 
d="M397 727q165 0 256.5 -103.5t91.5 -266.5t-91.5 -266.5t-256.5 -103.5t-256.5 103.5t-91.5 266.5t91.5 266.5t256.5 103.5zM397 120q96 0 145.5 66t49.5 171t-49.5 171t-145.5 66q-95 0 -145 -66.5t-50 -170.5t50 -170.5t145 -66.5zM576 896l-117 -129h-127l91 129h153z
" />
    <glyph glyph-name="Ocircumflex" unicode="&#xd4;" horiz-adv-x="794" 
d="M397 727q165 0 256.5 -103.5t91.5 -266.5t-91.5 -266.5t-256.5 -103.5t-256.5 103.5t-91.5 266.5t91.5 266.5t256.5 103.5zM397 120q96 0 145.5 66t49.5 171t-49.5 171t-145.5 66q-95 0 -145 -66.5t-50 -170.5t50 -170.5t145 -66.5zM459 896l109 -129h-111l-47 55h-26
l-46 -55h-109l109 129h121z" />
    <glyph glyph-name="Otilde" unicode="&#xd5;" horiz-adv-x="794" 
d="M397 727q165 0 256.5 -103.5t91.5 -266.5t-91.5 -266.5t-256.5 -103.5t-256.5 103.5t-91.5 266.5t91.5 266.5t256.5 103.5zM397 120q96 0 145.5 66t49.5 171t-49.5 171t-145.5 66q-95 0 -145 -66.5t-50 -170.5t50 -170.5t145 -66.5zM502 896h64q0 -61 -26 -95.5
t-77 -34.5q-34 0 -75.5 23.5t-61.5 23.5q-17 0 -23.5 -11.5t-7.5 -34.5h-63q0 61 25.5 95.5t76.5 34.5q34 0 76 -23t63 -23q27 0 29 45z" />
    <glyph glyph-name="Odieresis" unicode="&#xd6;" horiz-adv-x="794" 
d="M397 727q165 0 256.5 -103.5t91.5 -266.5t-91.5 -266.5t-256.5 -103.5t-256.5 103.5t-91.5 266.5t91.5 266.5t256.5 103.5zM397 120q96 0 145.5 66t49.5 171t-49.5 171t-145.5 66q-95 0 -145 -66.5t-50 -170.5t50 -170.5t145 -66.5zM555 782h-117v114h117v-114zM359 782
h-118v114h118v-114z" />
    <glyph glyph-name="multiply" unicode="&#xd7;" horiz-adv-x="658" 
d="M246 289l-167 168l83 83l167 -167l168 167l82 -83l-166 -167l166 -169l-82 -82l-168 167l-166 -166l-83 82z" />
    <glyph glyph-name="Oslash" unicode="&#xd8;" horiz-adv-x="794" 
d="M397 727q122 0 205 -59l38 46h105l-83 -101q83 -98 83 -256q0 -163 -91.5 -266.5t-256.5 -103.5q-119 0 -205 58l-37 -45h-106l83 100q-83 99 -83 257q0 163 91.5 266.5t256.5 103.5zM202 357q0 -83 29 -137l280 339q-44 35 -114 35q-95 0 -145 -66.5t-50 -170.5z
M397 120q96 0 145.5 66t49.5 171q0 83 -29 137l-280 -339q44 -35 114 -35z" />
    <glyph glyph-name="Ugrave" unicode="&#xd9;" horiz-adv-x="760" 
d="M530 714h149v-451q0 -133 -77.5 -204.5t-222.5 -71.5q-143 0 -220.5 71.5t-77.5 204.5v451h149v-448q0 -67 39.5 -106.5t110.5 -39.5q72 0 111 39.5t39 106.5v448zM328 767l-116 129h152l92 -129h-128z" />
    <glyph glyph-name="Uacute" unicode="&#xda;" horiz-adv-x="760" 
d="M530 714h149v-451q0 -133 -77.5 -204.5t-222.5 -71.5q-143 0 -220.5 71.5t-77.5 204.5v451h149v-448q0 -67 39.5 -106.5t110.5 -39.5q72 0 111 39.5t39 106.5v448zM548 896l-117 -129h-127l91 129h153z" />
    <glyph glyph-name="Ucircumflex" unicode="&#xdb;" horiz-adv-x="760" 
d="M530 714h149v-451q0 -133 -77.5 -204.5t-222.5 -71.5q-143 0 -220.5 71.5t-77.5 204.5v451h149v-448q0 -67 39.5 -106.5t110.5 -39.5q72 0 111 39.5t39 106.5v448zM441 896l109 -129h-111l-47 55h-26l-46 -55h-109l109 129h121z" />
    <glyph glyph-name="Udieresis" unicode="&#xdc;" horiz-adv-x="760" 
d="M530 714h149v-451q0 -133 -77.5 -204.5t-222.5 -71.5q-143 0 -220.5 71.5t-77.5 204.5v451h149v-448q0 -67 39.5 -106.5t110.5 -39.5q72 0 111 39.5t39 106.5v448zM537 782h-117v114h117v-114zM341 782h-118v114h118v-114z" />
    <glyph glyph-name="Yacute" unicode="&#xdd;" horiz-adv-x="679" 
d="M325 429h28l153 285h158l-250 -460v-254h-150v254l-249 460h157zM509 896l-117 -129h-127l91 129h153z" />
    <glyph glyph-name="Thorn" unicode="&#xde;" horiz-adv-x="682" 
d="M232 578h154q118 0 183 -58.5t65 -162.5q0 -103 -65.5 -162t-182.5 -59h-154v-136h-149v714h149v-136zM232 267h134q115 0 115 91q0 44 -27 66.5t-88 22.5h-134v-180z" />
    <glyph glyph-name="germandbls" unicode="&#xdf;" horiz-adv-x="643" 
d="M485 406v-25q54 -16 87 -62.5t33 -109.5q0 -99 -61 -154t-166 -55h-68v116h42q113 0 113 103q0 110 -126 110h-13v116h13q43 0 64.5 24t21.5 60q0 39 -23.5 62t-64.5 23q-95 0 -95 -116v-498h-140v397h-86v117h87q0 101 64.5 158.5t172.5 57.5q99 0 161 -52.5t62 -138.5
q0 -47 -21 -82.5t-57 -50.5z" />
    <glyph glyph-name="agrave" unicode="&#xe0;" horiz-adv-x="586" 
d="M390 0v44h-26q-49 -57 -144 -57q-84 0 -133 49.5t-49 121.5q0 69 52 120t157 51h137v13q0 80 -91 80q-81 0 -87 -55h-139q2 73 63 116.5t156 43.5q110 0 171.5 -47t61.5 -146v-334h-129zM269 98q51 0 83 30t32 78v32h-110q-96 0 -96 -69q0 -71 91 -71zM251 582l-116 145
h147l93 -145h-124z" />
    <glyph glyph-name="aacute" unicode="&#xe1;" horiz-adv-x="586" 
d="M390 0v44h-26q-49 -57 -144 -57q-84 0 -133 49.5t-49 121.5q0 69 52 120t157 51h137v13q0 80 -91 80q-81 0 -87 -55h-139q2 73 63 116.5t156 43.5q110 0 171.5 -47t61.5 -146v-334h-129zM269 98q51 0 83 30t32 78v32h-110q-96 0 -96 -69q0 -71 91 -71zM451 727l-117 -145
h-123l92 145h148z" />
    <glyph glyph-name="acircumflex" unicode="&#xe2;" horiz-adv-x="586" 
d="M390 0v44h-26q-49 -57 -144 -57q-84 0 -133 49.5t-49 121.5q0 69 52 120t157 51h137v13q0 80 -91 80q-81 0 -87 -55h-139q2 73 63 116.5t156 43.5q110 0 171.5 -47t61.5 -146v-334h-129zM269 98q51 0 83 30t32 78v32h-110q-96 0 -96 -69q0 -71 91 -71zM356 727l110 -145
h-106l-52 66h-26l-51 -66h-104l110 145h119z" />
    <glyph glyph-name="atilde" unicode="&#xe3;" horiz-adv-x="586" 
d="M390 0v44h-26q-49 -57 -144 -57q-84 0 -133 49.5t-49 121.5q0 69 52 120t157 51h137v13q0 80 -91 80q-81 0 -87 -55h-139q2 73 63 116.5t156 43.5q110 0 171.5 -47t61.5 -146v-334h-129zM269 98q51 0 83 30t32 78v32h-110q-96 0 -96 -69q0 -71 91 -71zM409 724h63
q0 -65 -26 -102.5t-76 -37.5q-34 0 -75.5 28.5t-59.5 28.5q-33 0 -33 -57h-63q0 65 26 102.5t76 37.5q34 0 76 -28.5t60 -28.5q32 0 32 57z" />
    <glyph glyph-name="adieresis" unicode="&#xe4;" horiz-adv-x="586" 
d="M390 0v44h-26q-49 -57 -144 -57q-84 0 -133 49.5t-49 121.5q0 69 52 120t157 51h137v13q0 80 -91 80q-81 0 -87 -55h-139q2 73 63 116.5t156 43.5q110 0 171.5 -47t61.5 -146v-334h-129zM269 98q51 0 83 30t32 78v32h-110q-96 0 -96 -69q0 -71 91 -71zM459 602h-117v125
h117v-125zM263 602h-118v125h118v-125z" />
    <glyph glyph-name="aring" unicode="&#xe5;" horiz-adv-x="586" 
d="M390 0v44h-26q-49 -57 -144 -57q-84 0 -133 49.5t-49 121.5q0 69 52 120t157 51h137v13q0 80 -91 80q-81 0 -87 -55h-139q2 73 63 116.5t156 43.5q110 0 171.5 -47t61.5 -146v-334h-129zM269 98q51 0 83 30t32 78v32h-110q-96 0 -96 -69q0 -71 91 -71zM296 801
q50 0 84 -33.5t34 -81.5t-34 -81.5t-84 -33.5q-48 0 -83 33.5t-35 81.5t35 81.5t83 33.5zM296 636q21 0 36 14.5t15 35.5t-15 36t-36 15q-20 0 -35 -15t-15 -36t15 -35.5t35 -14.5z" />
    <glyph glyph-name="ae" unicode="&#xe6;" horiz-adv-x="917" 
d="M872 241h-363q8 -138 122 -138q71 0 94 54h142q-38 -170 -236 -170q-116 0 -186 86h-24q-68 -86 -190 -86q-91 0 -142 47.5t-51 121.5q0 79 55.5 126t157.5 47h125v13q0 80 -89 80q-76 0 -83 -55h-139q4 72 62.5 116t153.5 44q111 0 166 -63h25q63 63 162 63
q108 0 172 -69t66 -178v-39zM376 203v35h-103q-95 0 -95 -70q0 -34 23 -52t64 -18q51 0 81 29t30 76zM627 422q-91 0 -111 -92h214q-13 92 -103 92z" />
    <glyph glyph-name="ccedilla" unicode="&#xe7;" horiz-adv-x="583" 
d="M401 173h138q-10 -83 -74 -134.5t-160 -51.5l-17 -45h14q13 10 39 10q33 0 55 -23.5t22 -62.5q0 -40 -28.5 -67.5t-84.5 -27.5q-48 0 -75.5 24t-29.5 57h72q6 -25 35 -25q16 0 26 9.5t10 25.5t-10 25t-26 9q-19 0 -31 -12h-62l41 107q-98 14 -154 85t-56 181
q0 122 70 196t189 74q96 0 158.5 -48.5t72.5 -128.5h-139q-17 60 -91 60q-62 0 -91 -42t-29 -110t29.5 -111.5t90.5 -43.5q83 0 96 70z" />
    <glyph glyph-name="egrave" unicode="&#xe8;" horiz-adv-x="597" 
d="M552 283v-42h-368q6 -138 125 -138q76 0 96 54h142q-16 -80 -77 -125t-163 -45q-121 0 -191.5 74t-70.5 198q0 123 70 195.5t189 72.5q114 0 180 -68t68 -176zM303 422q-92 0 -114 -88h220q-14 88 -106 88zM267 582l-116 145h147l93 -145h-124z" />
    <glyph glyph-name="eacute" unicode="&#xe9;" horiz-adv-x="597" 
d="M552 283v-42h-368q6 -138 125 -138q76 0 96 54h142q-16 -80 -77 -125t-163 -45q-121 0 -191.5 74t-70.5 198q0 123 70 195.5t189 72.5q114 0 180 -68t68 -176zM303 422q-92 0 -114 -88h220q-14 88 -106 88zM475 727l-117 -145h-123l92 145h148z" />
    <glyph glyph-name="ecircumflex" unicode="&#xea;" horiz-adv-x="597" 
d="M552 283v-42h-368q6 -138 125 -138q76 0 96 54h142q-16 -80 -77 -125t-163 -45q-121 0 -191.5 74t-70.5 198q0 123 70 195.5t189 72.5q114 0 180 -68t68 -176zM303 422q-92 0 -114 -88h220q-14 88 -106 88zM362 727l110 -145h-106l-52 66h-26l-51 -66h-104l110 145h119z
" />
    <glyph glyph-name="edieresis" unicode="&#xeb;" horiz-adv-x="597" 
d="M552 283v-42h-368q6 -138 125 -138q76 0 96 54h142q-16 -80 -77 -125t-163 -45q-121 0 -191.5 74t-70.5 198q0 123 70 195.5t189 72.5q114 0 180 -68t68 -176zM303 422q-92 0 -114 -88h220q-14 88 -106 88zM462 602h-117v125h117v-125zM266 602h-118v125h118v-125z" />
    <glyph glyph-name="igrave" unicode="&#xec;" horiz-adv-x="291" 
d="M92 582l-116 145h147l93 -145h-124zM215 514v-514h-140v514h140z" />
    <glyph glyph-name="iacute" unicode="&#xed;" horiz-adv-x="290" 
d="M324 727l-117 -145h-123l92 145h148zM215 514v-514h-140v514h140z" />
    <glyph glyph-name="icircumflex" unicode="&#xee;" horiz-adv-x="290" 
d="M215 514v-514h-140v514h140zM206 727l110 -145h-106l-52 66h-26l-51 -66h-104l110 145h119z" />
    <glyph glyph-name="idieresis" unicode="&#xef;" horiz-adv-x="290" 
d="M303 602h-117v125h117v-125zM107 602h-118v125h118v-125zM215 514v-514h-140v514h140z" />
    <glyph glyph-name="eth" unicode="&#xf0;" horiz-adv-x="616" 
d="M137 557v66h140q-42 41 -133 104h167q66 -45 119 -104h110v-66h-59q90 -134 90 -291q0 -125 -69.5 -202t-195.5 -77q-120 0 -190.5 73t-70.5 187q0 110 63 181.5t154 71.5q72 0 110 -33h26q-18 42 -59 90h-202zM308 103q61 0 91.5 39.5t30.5 103.5q0 63 -30.5 103.5
t-91.5 40.5t-92.5 -40.5t-31.5 -103.5t31.5 -103t92.5 -40z" />
    <glyph glyph-name="ntilde" unicode="&#xf1;" horiz-adv-x="635" 
d="M568 0h-140v291q0 54 -25.5 83t-74.5 29q-51 0 -82.5 -38t-31.5 -92v-273h-140v514h135v-47h26q47 60 143 60q95 0 142.5 -55t47.5 -156v-316zM426 724h63q0 -65 -26 -102.5t-76 -37.5q-34 0 -75.5 28.5t-59.5 28.5q-33 0 -33 -57h-63q0 65 26 102.5t76 37.5
q34 0 76 -28.5t60 -28.5q32 0 32 57z" />
    <glyph glyph-name="ograve" unicode="&#xf2;" horiz-adv-x="622" 
d="M311 527q122 0 194 -74t72 -196t-72 -196t-194 -74q-121 0 -193.5 74.5t-72.5 195.5t72.5 195.5t193.5 74.5zM311 103q63 0 94.5 43.5t31.5 110.5q0 66 -31.5 109.5t-94.5 43.5q-62 0 -94 -43.5t-32 -109.5q0 -67 32 -110.5t94 -43.5zM255 582l-116 145h147l93 -145h-124
z" />
    <glyph glyph-name="oacute" unicode="&#xf3;" horiz-adv-x="622" 
d="M311 527q122 0 194 -74t72 -196t-72 -196t-194 -74q-121 0 -193.5 74.5t-72.5 195.5t72.5 195.5t193.5 74.5zM311 103q63 0 94.5 43.5t31.5 110.5q0 66 -31.5 109.5t-94.5 43.5q-62 0 -94 -43.5t-32 -109.5q0 -67 32 -110.5t94 -43.5zM484 727l-117 -145h-123l92 145h148
z" />
    <glyph glyph-name="ocircumflex" unicode="&#xf4;" horiz-adv-x="622" 
d="M311 527q122 0 194 -74t72 -196t-72 -196t-194 -74q-121 0 -193.5 74.5t-72.5 195.5t72.5 195.5t193.5 74.5zM311 103q63 0 94.5 43.5t31.5 110.5q0 66 -31.5 109.5t-94.5 43.5q-62 0 -94 -43.5t-32 -109.5q0 -67 32 -110.5t94 -43.5zM371 727l110 -145h-106l-52 66h-26
l-51 -66h-104l110 145h119z" />
    <glyph glyph-name="otilde" unicode="&#xf5;" horiz-adv-x="622" 
d="M311 527q122 0 194 -74t72 -196t-72 -196t-194 -74q-121 0 -193.5 74.5t-72.5 195.5t72.5 195.5t193.5 74.5zM311 103q63 0 94.5 43.5t31.5 110.5q0 66 -31.5 109.5t-94.5 43.5q-62 0 -94 -43.5t-32 -109.5q0 -67 32 -110.5t94 -43.5zM414 724h63q0 -65 -26 -102.5
t-76 -37.5q-34 0 -75.5 28.5t-59.5 28.5q-33 0 -33 -57h-63q0 65 26 102.5t76 37.5q34 0 76 -28.5t60 -28.5q32 0 32 57z" />
    <glyph glyph-name="odieresis" unicode="&#xf6;" horiz-adv-x="622" 
d="M311 527q122 0 194 -74t72 -196t-72 -196t-194 -74q-121 0 -193.5 74.5t-72.5 195.5t72.5 195.5t193.5 74.5zM311 103q63 0 94.5 43.5t31.5 110.5q0 66 -31.5 109.5t-94.5 43.5q-62 0 -94 -43.5t-32 -109.5q0 -67 32 -110.5t94 -43.5zM468 602h-117v125h117v-125z
M272 602h-118v125h118v-125z" />
    <glyph glyph-name="divide" unicode="&#xf7;" horiz-adv-x="687" 
d="M423 9h-159v136h159v-136zM423 433h-159v136h159v-136zM608 230h-529v119h529v-119z" />
    <glyph glyph-name="oslash" unicode="&#xf8;" horiz-adv-x="622" 
d="M311 527q90 0 152 -41l24 28h90l-62 -73q62 -71 62 -184q0 -122 -72 -196t-194 -74q-90 0 -152 41l-24 -28h-90l62 72q-62 73 -62 185q0 121 72.5 195.5t193.5 74.5zM311 103q63 0 94.5 43.5t31.5 110.5q0 46 -15 77l-180 -210q27 -21 69 -21zM185 257q0 -49 15 -78
l179 210q-27 21 -68 21q-62 0 -94 -43.5t-32 -109.5z" />
    <glyph glyph-name="ugrave" unicode="&#xf9;" horiz-adv-x="635" 
d="M67 514h140v-291q0 -54 25.5 -83t74.5 -29q51 0 82.5 38t31.5 92v273h140v-514h-135v47h-26q-46 -60 -143 -60q-95 0 -142.5 55t-47.5 156v316zM260 582l-116 145h147l93 -145h-124z" />
    <glyph glyph-name="uacute" unicode="&#xfa;" horiz-adv-x="635" 
d="M67 514h140v-291q0 -54 25.5 -83t74.5 -29q51 0 82.5 38t31.5 92v273h140v-514h-135v47h-26q-46 -60 -143 -60q-95 0 -142.5 55t-47.5 156v316zM485 727l-117 -145h-123l92 145h148z" />
    <glyph glyph-name="ucircumflex" unicode="&#xfb;" horiz-adv-x="635" 
d="M67 514h140v-291q0 -54 25.5 -83t74.5 -29q51 0 82.5 38t31.5 92v273h140v-514h-135v47h-26q-46 -60 -143 -60q-95 0 -142.5 55t-47.5 156v316zM373 727l110 -145h-106l-52 66h-26l-51 -66h-104l110 145h119z" />
    <glyph glyph-name="udieresis" unicode="&#xfc;" horiz-adv-x="635" 
d="M67 514h140v-291q0 -54 25.5 -83t74.5 -29q51 0 82.5 38t31.5 92v273h140v-514h-135v47h-26q-46 -60 -143 -60q-95 0 -142.5 55t-47.5 156v316zM470 602h-117v125h117v-125zM274 602h-118v125h118v-125z" />
    <glyph glyph-name="yacute" unicode="&#xfd;" horiz-adv-x="594" 
d="M267 -200h-140l109 253l-218 461h146l128 -274h26l118 274h141zM469 727l-117 -145h-123l92 145h148z" />
    <glyph glyph-name="thorn" unicode="&#xfe;" 
d="M334 410q-62 0 -93.5 -43.5t-31.5 -109.5t31.5 -110t93.5 -44q60 0 91.5 43t31.5 111q0 67 -31.5 110t-91.5 43zM74 727h140v-260h26q46 60 140 60q100 0 158.5 -75.5t58.5 -194.5q0 -120 -59 -195t-159 -75q-94 0 -139 60h-26v-247h-140v927z" />
    <glyph glyph-name="ydieresis" unicode="&#xff;" horiz-adv-x="594" 
d="M267 -200h-140l109 253l-218 461h146l128 -274h26l118 274h141zM458 602h-117v125h117v-125zM262 602h-118v125h118v-125z" />
    <glyph glyph-name="Amacron" unicode="&#x100;" horiz-adv-x="722" 
d="M553 0l-58 193h-272l-58 -193h-147l227 714h231l228 -714h-151zM336 571l-75 -248h194l-75 248h-44zM512 795h-302v82h302v-82z" />
    <glyph glyph-name="amacron" unicode="&#x101;" horiz-adv-x="586" 
d="M390 0v44h-26q-49 -57 -144 -57q-84 0 -133 49.5t-49 121.5q0 69 52 120t157 51h137v13q0 80 -91 80q-81 0 -87 -55h-139q2 73 63 116.5t156 43.5q110 0 171.5 -47t61.5 -146v-334h-129zM269 98q51 0 83 30t32 78v32h-110q-96 0 -96 -69q0 -71 91 -71zM449 619h-302v85
h302v-85z" />
    <glyph glyph-name="Abreve" unicode="&#x102;" horiz-adv-x="722" 
d="M553 0l-58 193h-272l-58 -193h-147l227 714h231l228 -714h-151zM336 571l-75 -248h194l-75 248h-44zM423 896h83q-2 -61 -38.5 -95t-106.5 -34q-68 0 -105 34t-39 95h84q2 -55 60 -55q60 0 62 55z" />
    <glyph glyph-name="abreve" unicode="&#x103;" horiz-adv-x="586" 
d="M390 0v44h-26q-49 -57 -144 -57q-84 0 -133 49.5t-49 121.5q0 69 52 120t157 51h137v13q0 80 -91 80q-81 0 -87 -55h-139q2 73 63 116.5t156 43.5q110 0 171.5 -47t61.5 -146v-334h-129zM269 98q51 0 83 30t32 78v32h-110q-96 0 -96 -69q0 -71 91 -71zM355 727h83
q0 -68 -37 -106.5t-107 -38.5q-71 0 -108 39t-37 106h84q0 -68 61 -68t61 68z" />
    <glyph glyph-name="Aogonek" unicode="&#x104;" horiz-adv-x="724" 
d="M553 0l-58 193h-272l-58 -193h-147l227 714h231l228 -714q-58 -31 -58 -73q0 -45 60 -45v-82h-30q-69 0 -101.5 26t-32.5 70q0 31 19 59.5t56 44.5h-64zM336 571l-75 -248h194l-75 248h-44z" />
    <glyph glyph-name="aogonek" unicode="&#x105;" horiz-adv-x="586" 
d="M390 0v44h-26q-49 -57 -144 -57q-84 0 -133 49.5t-49 121.5q0 69 52 120t157 51h137v13q0 80 -91 80q-81 0 -87 -55h-139q2 73 63 116.5t156 43.5q110 0 171.5 -47t61.5 -146v-334q-58 -31 -58 -73q0 -45 60 -45v-82h-30q-69 0 -101.5 26t-32.5 70q0 31 19 59.5t56 44.5
h-42zM269 98q51 0 83 30t32 78v32h-110q-96 0 -96 -69q0 -71 91 -71z" />
    <glyph glyph-name="Cacute" unicode="&#x106;" horiz-adv-x="750" 
d="M534 228h155q-16 -109 -95.5 -175t-202.5 -66q-161 0 -251.5 101.5t-90.5 268.5t91 268.5t251 101.5q117 0 195 -60.5t96 -160.5h-156q-25 88 -135 88q-92 0 -140.5 -66.5t-48.5 -170.5t48.5 -170.5t140.5 -66.5q57 0 94.5 28.5t48.5 79.5zM569 896l-117 -129h-127
l91 129h153z" />
    <glyph glyph-name="cacute" unicode="&#x107;" horiz-adv-x="583" 
d="M401 173h138q-10 -84 -74.5 -135t-160.5 -51q-119 0 -189 73.5t-70 196.5q0 122 70 196t189 74q96 0 158.5 -48.5t72.5 -128.5h-139q-17 60 -91 60q-62 0 -91 -42t-29 -110t29.5 -111.5t90.5 -43.5q83 0 96 70zM468 727l-117 -145h-123l92 145h148z" />
    <glyph glyph-name="Ccaron" unicode="&#x10c;" horiz-adv-x="750" 
d="M534 228h155q-16 -109 -95.5 -175t-202.5 -66q-161 0 -251.5 101.5t-90.5 268.5t91 268.5t251 101.5q117 0 195 -60.5t96 -160.5h-156q-25 88 -135 88q-92 0 -140.5 -66.5t-48.5 -170.5t48.5 -170.5t140.5 -66.5q57 0 94.5 28.5t48.5 79.5zM332 767l-109 129h111l46 -55
h26l47 55h109l-109 -129h-121z" />
    <glyph glyph-name="ccaron" unicode="&#x10d;" horiz-adv-x="583" 
d="M401 173h138q-10 -84 -74.5 -135t-160.5 -51q-119 0 -189 73.5t-70 196.5q0 122 70 196t189 74q96 0 158.5 -48.5t72.5 -128.5h-139q-17 60 -91 60q-62 0 -91 -42t-29 -110t29.5 -111.5t90.5 -43.5q83 0 96 70zM243 582l-110 145h106l51 -66h26l51 66h105l-110 -145h-119
z" />
    <glyph glyph-name="Dcaron" unicode="&#x10e;" horiz-adv-x="762" 
d="M83 714h298q161 0 246 -96t85 -261t-85 -261t-246 -96h-298v714zM232 133h130q102 0 149.5 61.5t47.5 162.5t-47.5 162.5t-149.5 61.5h-130v-448zM290 767l-109 129h111l46 -55h26l47 55h109l-109 -129h-121z" />
    <glyph glyph-name="dcaron" unicode="&#x10f;" horiz-adv-x="775" 
d="M722 606h-68v121h147v-146l-76 -83h-79l76 83v25zM263 527q94 0 139 -60h26v260h140v-727h-135v47h-26q-48 -60 -144 -60q-100 0 -159 75.5t-59 194.5t59 194.5t159 75.5zM308 103q62 0 93.5 44t31.5 110t-31.5 109.5t-93.5 43.5q-60 0 -91.5 -43t-31.5 -110
q0 -68 31.5 -111t91.5 -43z" />
    <glyph glyph-name="Dcroat" unicode="&#x110;" horiz-adv-x="782" 
d="M20 305v114h84v295h298q161 0 246 -96t85 -261t-85 -261t-246 -96h-298v305h-84zM253 133h130q102 0 149.5 61.5t47.5 162.5t-47.5 162.5t-149.5 61.5h-130v-162h176v-114h-176v-172z" />
    <glyph glyph-name="dslash" unicode="&#x111;" horiz-adv-x="661" 
d="M263 527q94 0 139 -60h26v109h-156v71h156v80h140v-80h77v-71h-77v-576h-136v47h-25q-48 -60 -144 -60q-100 0 -159 75.5t-59 194.5t59 194.5t159 75.5zM307 103q62 0 93.5 44t31.5 110t-31.5 109.5t-93.5 43.5q-61 0 -91.5 -42.5t-30.5 -110.5t30.5 -111t91.5 -43z" />
    <glyph glyph-name="Emacron" unicode="&#x112;" horiz-adv-x="666" 
d="M232 133h390v-133h-539v714h528v-133h-379v-150h295v-130h-295v-168zM503 795h-302v82h302v-82z" />
    <glyph glyph-name="emacron" unicode="&#x113;" horiz-adv-x="597" 
d="M552 283v-42h-368q6 -138 125 -138q76 0 96 54h142q-16 -80 -77 -125t-163 -45q-121 0 -191.5 74t-70.5 198q0 123 70 195.5t189 72.5q114 0 180 -68t68 -176zM303 422q-92 0 -114 -88h220q-14 88 -106 88zM461 619h-302v85h302v-85z" />
    <glyph glyph-name="Edotaccent" unicode="&#x116;" horiz-adv-x="666" 
d="M232 133h390v-133h-539v714h528v-133h-379v-150h295v-130h-295v-168zM423 782h-142v114h142v-114z" />
    <glyph glyph-name="edotaccent" unicode="&#x117;" horiz-adv-x="597" 
d="M552 283v-42h-368q6 -138 125 -138q76 0 96 54h142q-16 -80 -77 -125t-163 -45q-121 0 -191.5 74t-70.5 198q0 123 70 195.5t189 72.5q114 0 180 -68t68 -176zM303 422q-92 0 -114 -88h220q-14 88 -106 88zM376 602h-142v125h142v-125z" />
    <glyph glyph-name="Eogonek" unicode="&#x118;" horiz-adv-x="666" 
d="M232 133h390v-133q-58 -31 -58 -73q0 -45 60 -45v-82h-30q-69 0 -101.5 26t-32.5 70q0 31 19 59.5t56 44.5h-452v714h528v-133h-379v-150h295v-130h-295v-168z" />
    <glyph glyph-name="eogonek" unicode="&#x119;" horiz-adv-x="597" 
d="M552 283v-42h-368q6 -138 125 -138q76 0 96 54h142q-11 -51 -36 -84t-72 -59q-35 -20 -48.5 -36.5t-13.5 -37.5q0 -45 60 -45v-82h-30q-69 0 -101.5 26t-32.5 70t35 78h-1q-121 0 -191.5 74t-70.5 198q0 123 70 195.5t189 72.5q114 0 180 -68t68 -176zM303 422
q-92 0 -114 -88h220q-14 88 -106 88z" />
    <glyph glyph-name="Ecaron" unicode="&#x11a;" horiz-adv-x="666" 
d="M232 133h390v-133h-539v714h528v-133h-379v-150h295v-130h-295v-168zM292 767l-109 129h111l46 -55h26l47 55h109l-109 -129h-121z" />
    <glyph glyph-name="ecaron" unicode="&#x11b;" horiz-adv-x="597" 
d="M552 283v-42h-368q6 -138 125 -138q76 0 96 54h142q-16 -80 -77 -125t-163 -45q-121 0 -191.5 74t-70.5 198q0 123 70 195.5t189 72.5q114 0 180 -68t68 -176zM303 422q-92 0 -114 -88h220q-14 88 -106 88zM245 582l-110 145h106l51 -66h26l51 66h105l-110 -145h-119z
" />
    <glyph glyph-name="uni0122" unicode="&#x122;" horiz-adv-x="770" 
d="M390 397h318v-84q0 -65 -18 -121.5t-54 -103.5t-98 -74t-143 -27q-164 0 -254.5 102t-90.5 268t91 268t255 102q120 0 196 -58.5t97 -158.5h-155q-25 84 -139 84q-93 0 -142.5 -65.5t-49.5 -171.5t50 -172t143 -66q79 0 120 42t43 114h-169v122zM399 -232h-82l69 62v21
h-59v95h140v-116z" />
    <glyph glyph-name="uni0123" unicode="&#x123;" horiz-adv-x="643" 
d="M435 514h135v-489q0 -108 -71.5 -172t-186.5 -64q-107 0 -173 45t-74 128h139q10 -63 106 -63q120 0 120 138v30h-26q-42 -59 -134 -59q-102 0 -163 72t-61 187t61.5 187.5t163.5 72.5q99 0 138 -60h26v47zM309 125q60 0 93 40.5t33 101.5q0 63 -33 103t-93 40
q-58 0 -90.5 -39.5t-32.5 -103.5t32.5 -103t90.5 -39zM308 756h82l-69 -62v-21h59v-95h-140v116z" />
    <glyph glyph-name="Itilde" unicode="&#x128;" horiz-adv-x="325" 
d="M88 714h149v-714h-149v714zM267 896h64q0 -61 -26 -95.5t-77 -34.5q-34 0 -75.5 23.5t-61.5 23.5q-17 0 -23.5 -11.5t-7.5 -34.5h-63q0 61 25.5 95.5t76.5 34.5q34 0 76 -23t63 -23q27 0 29 45z" />
    <glyph glyph-name="itilde" unicode="&#x129;" horiz-adv-x="290" 
d="M250 724h63q0 -65 -26 -102.5t-76 -37.5q-34 0 -75.5 28.5t-59.5 28.5q-33 0 -33 -57h-63q0 65 26 102.5t76 37.5q34 0 76 -28.5t60 -28.5q32 0 32 57zM215 514v-514h-140v514h140z" />
    <glyph glyph-name="Imacron" unicode="&#x12a;" horiz-adv-x="325" 
d="M88 714h149v-714h-149v714zM314 795h-302v82h302v-82z" />
    <glyph glyph-name="imacron" unicode="&#x12b;" horiz-adv-x="290" 
d="M297 619h-302v85h302v-85zM215 514v-514h-140v514h140z" />
    <glyph glyph-name="Iogonek" unicode="&#x12e;" horiz-adv-x="325" 
d="M88 714h149v-714q-58 -31 -58 -73q0 -45 60 -45v-82h-30q-69 0 -101.5 26t-32.5 70q0 31 19 59.5t56 44.5h-62v714z" />
    <glyph glyph-name="iogonek" unicode="&#x12f;" horiz-adv-x="290" 
d="M215 514v-514q-58 -31 -58 -73q0 -45 60 -45v-82h-30q-69 0 -101.5 26t-32.5 70q0 31 19 59.5t56 44.5h-53v514h140zM216 602h-142v125h142v-125z" />
    <glyph glyph-name="dotlessi" unicode="&#x131;" horiz-adv-x="290" 
d="M215 514v-514h-140v514h140z" />
    <glyph glyph-name="uni0136" unicode="&#x136;" horiz-adv-x="753" 
d="M83 0v714h149v-295l292 295h174l-214 -224l248 -490h-164l-181 359h-26l-129 -129v-230h-149zM402 -232h-82l69 62v21h-59v95h140v-116z" />
    <glyph glyph-name="uni0137" unicode="&#x137;" horiz-adv-x="596" 
d="M588 0h-147l-119 241h-26l-81 -91v-150h-141v727h141v-414l190 201h156l-146 -159zM331 -232h-82l69 62v21h-59v95h140v-116z" />
    <glyph glyph-name="kgreenlandic" unicode="&#x138;" horiz-adv-x="599" 
d="M588 0h-147l-119 241h-26l-81 -91v-150h-141v514h141v-201l190 201h156l-146 -159z" />
    <glyph glyph-name="Lacute" unicode="&#x139;" horiz-adv-x="651" 
d="M232 136h378v-136h-527v714h149v-578zM337 896l-117 -129h-127l91 129h153z" />
    <glyph glyph-name="lacute" unicode="&#x13a;" horiz-adv-x="288" 
d="M74 727h140v-727h-140v727zM325 896l-117 -129h-127l91 129h153z" />
    <glyph glyph-name="uni013B" unicode="&#x13b;" horiz-adv-x="651" 
d="M232 136h378v-136h-527v714h149v-578zM348 -232h-82l69 62v21h-59v95h140v-116z" />
    <glyph glyph-name="uni013C" unicode="&#x13c;" horiz-adv-x="288" 
d="M74 727h140v-727h-140v727zM146 -232h-82l69 62v21h-59v95h140v-116z" />
    <glyph glyph-name="Lcaron" unicode="&#x13d;" horiz-adv-x="651" 
d="M453 593h-68v121h147v-146l-76 -83h-79l76 83v25zM232 136h378v-136h-527v714h149v-578z" />
    <glyph glyph-name="lcaron" unicode="&#x13e;" horiz-adv-x="421" 
d="M300 606v121h147v-146l-76 -83h-79l76 83v25h-68zM74 727h140v-727h-140v727z" />
    <glyph glyph-name="Lslash" unicode="&#x141;" horiz-adv-x="678" 
d="M258 136h379v-136h-528v266l-89 -35v123l89 35v325h149v-265l176 71v-123l-176 -71v-190z" />
    <glyph glyph-name="lslash" unicode="&#x142;" horiz-adv-x="372" 
d="M116 727h140v-268l97 43v-124l-97 -43v-335h-140v272l-97 -43v124l97 43v331z" />
    <glyph glyph-name="Nacute" unicode="&#x143;" horiz-adv-x="781" 
d="M564 714h136v-714h-193l-262 484h-26v-484h-136v714h193l262 -484h26v484zM562 896l-117 -129h-127l91 129h153z" />
    <glyph glyph-name="nacute" unicode="&#x144;" horiz-adv-x="635" 
d="M568 0h-140v291q0 54 -25.5 83t-74.5 29q-51 0 -82.5 -38t-31.5 -92v-273h-140v514h135v-47h26q47 60 143 60q95 0 142.5 -55t47.5 -156v-316zM496 727l-117 -145h-123l92 145h148z" />
    <glyph glyph-name="uni0145" unicode="&#x145;" horiz-adv-x="781" 
d="M564 714h136v-714h-193l-262 484h-26v-484h-136v714h193l262 -484h26v484zM394 -232h-82l69 62v21h-59v95h140v-116z" />
    <glyph glyph-name="uni0146" unicode="&#x146;" horiz-adv-x="635" 
d="M568 0h-140v291q0 54 -25.5 83t-74.5 29q-51 0 -82.5 -38t-31.5 -92v-273h-140v514h135v-47h26q47 60 143 60q95 0 142.5 -55t47.5 -156v-316zM324 -232h-82l69 62v21h-59v95h140v-116z" />
    <glyph glyph-name="Ncaron" unicode="&#x147;" horiz-adv-x="781" 
d="M564 714h136v-714h-193l-262 484h-26v-484h-136v714h193l262 -484h26v484zM330 767l-109 129h111l46 -55h26l47 55h109l-109 -129h-121z" />
    <glyph glyph-name="ncaron" unicode="&#x148;" horiz-adv-x="635" 
d="M568 0h-140v291q0 54 -25.5 83t-74.5 29q-51 0 -82.5 -38t-31.5 -92v-273h-140v514h135v-47h26q47 60 143 60q95 0 142.5 -55t47.5 -156v-316zM258 582l-110 145h106l51 -66h26l51 66h105l-110 -145h-119z" />
    <glyph glyph-name="Eng" unicode="&#x14a;" horiz-adv-x="781" 
d="M563 714h137v-694q0 -106 -61.5 -163t-168.5 -57h-46v121h41q46 0 70 18.5t29 60.5h-57l-262 484h-26v-484h-136v714h193l262 -484h25v484z" />
    <glyph glyph-name="eng" unicode="&#x14b;" horiz-adv-x="635" 
d="M568 316v-332q0 -96 -54 -140t-143 -44h-65v116h46q76 0 76 79v296q0 54 -25.5 83t-74.5 29q-52 0 -83 -38t-31 -93v-272h-140v514h135v-47h26q47 60 143 60q95 0 142.5 -55t47.5 -156z" />
    <glyph glyph-name="Omacron" unicode="&#x14c;" horiz-adv-x="796" 
d="M397 727q165 0 256.5 -103.5t91.5 -266.5t-91.5 -266.5t-256.5 -103.5t-256.5 103.5t-91.5 266.5t91.5 266.5t256.5 103.5zM397 120q96 0 145.5 66t49.5 171t-49.5 171t-145.5 66q-95 0 -145 -66.5t-50 -170.5t50 -170.5t145 -66.5zM549 795h-302v82h302v-82z" />
    <glyph glyph-name="omacron" unicode="&#x14d;" horiz-adv-x="622" 
d="M311 527q122 0 194 -74t72 -196t-72 -196t-194 -74q-121 0 -193.5 74.5t-72.5 195.5t72.5 195.5t193.5 74.5zM311 103q63 0 94.5 43.5t31.5 110.5q0 66 -31.5 109.5t-94.5 43.5q-62 0 -94 -43.5t-32 -109.5q0 -67 32 -110.5t94 -43.5zM462 619h-302v85h302v-85z" />
    <glyph glyph-name="Ohungarumlaut" unicode="&#x150;" horiz-adv-x="796" 
d="M397 727q165 0 256.5 -103.5t91.5 -266.5t-91.5 -266.5t-256.5 -103.5t-256.5 103.5t-91.5 266.5t91.5 266.5t256.5 103.5zM397 120q96 0 145.5 66t49.5 171t-49.5 171t-145.5 66q-95 0 -145 -66.5t-50 -170.5t50 -170.5t145 -66.5zM449 896l-101 -129h-111l77 129h135z
M633 896l-102 -129h-110l78 129h134z" />
    <glyph glyph-name="ohungarumlaut" unicode="&#x151;" horiz-adv-x="622" 
d="M311 527q122 0 194 -74t72 -196t-72 -196t-194 -74q-121 0 -193.5 74.5t-72.5 195.5t72.5 195.5t193.5 74.5zM311 103q63 0 94.5 43.5t31.5 110.5q0 66 -31.5 109.5t-94.5 43.5q-62 0 -94 -43.5t-32 -109.5q0 -67 32 -110.5t94 -43.5zM359 727l-97 -145h-111l74 145h134z
M543 727l-98 -145h-110l74 145h134z" />
    <glyph glyph-name="OE" unicode="&#x152;" horiz-adv-x="1091" 
d="M708 133h339v-133h-488v42h-26q-63 -55 -166 -55q-143 0 -230.5 100.5t-87.5 269.5t87.5 269.5t230.5 100.5q102 0 166 -55h26v42h477v-133h-328v-150h244v-130h-244v-168zM397 120q114 0 162 85v304q-48 85 -162 85q-94 0 -144.5 -66.5t-50.5 -170.5t50.5 -170.5
t144.5 -66.5z" />
    <glyph glyph-name="oe" unicode="&#x153;" horiz-adv-x="978" 
d="M933 241h-363q7 -138 120 -138q73 0 96 54h142q-16 -80 -76 -125t-162 -45q-107 0 -177 77h-26q-66 -77 -180 -77q-118 0 -190 75.5t-72 194.5t72 194.5t190 75.5q114 0 183 -79h26q66 79 179 79q107 0 172.5 -69t65.5 -175v-42zM308 103q61 0 92 43.5t31 110.5
q0 66 -31 109.5t-92 43.5q-60 0 -91.5 -43.5t-31.5 -109.5t31.5 -110t91.5 -44zM688 422q-92 0 -112 -88h213q-12 88 -101 88z" />
    <glyph glyph-name="Racute" unicode="&#x154;" horiz-adv-x="721" 
d="M83 714h336q119 0 185 -58.5t66 -163.5q0 -135 -106 -191l107 -301h-150l-96 269h-193v-269h-149v714zM232 583v-187h166q64 0 92 23.5t28 70.5q0 50 -30.5 71.5t-104.5 21.5h-151zM516 896l-117 -129h-127l91 129h153z" />
    <glyph glyph-name="racute" unicode="&#x155;" horiz-adv-x="448" 
d="M421 514v-130h-50q-157 0 -157 -159v-225h-140v514h135v-58h26q39 58 138 58h48zM386 727l-117 -145h-123l92 145h148z" />
    <glyph glyph-name="uni0156" unicode="&#x156;" horiz-adv-x="721" 
d="M83 714h336q119 0 185 -58.5t66 -163.5q0 -135 -106 -191l107 -301h-150l-96 269h-193v-269h-149v714zM232 583v-187h166q64 0 92 23.5t28 70.5q0 50 -30.5 71.5t-104.5 21.5h-151zM370 -232h-82l69 62v21h-59v95h140v-116z" />
    <glyph glyph-name="uni0157" unicode="&#x157;" horiz-adv-x="448" 
d="M421 514v-130h-50q-157 0 -157 -159v-225h-140v514h135v-58h26q39 58 138 58h48zM146 -232h-82l69 62v21h-59v95h140v-116z" />
    <glyph glyph-name="Rcaron" unicode="&#x158;" horiz-adv-x="721" 
d="M83 714h336q119 0 185 -58.5t66 -163.5q0 -135 -106 -191l107 -301h-150l-96 269h-193v-269h-149v714zM232 583v-187h166q64 0 92 23.5t28 70.5q0 50 -30.5 71.5t-104.5 21.5h-151zM291 767l-109 129h111l46 -55h26l47 55h109l-109 -129h-121z" />
    <glyph glyph-name="rcaron" unicode="&#x159;" horiz-adv-x="448" 
d="M421 514v-130h-50q-157 0 -157 -159v-225h-140v514h135v-58h26q39 58 138 58h48zM186 582l-110 145h106l51 -66h26l51 66h105l-110 -145h-119z" />
    <glyph glyph-name="Sacute" unicode="&#x15a;" horiz-adv-x="690" 
d="M619 518h-152q-18 81 -130 81q-51 0 -84 -20.5t-33 -60.5q0 -57 89 -73l133 -24q194 -36 194 -209q0 -96 -74 -160.5t-213 -64.5q-134 0 -214 62t-91 169h152q17 -103 159 -103q60 0 95.5 24t35.5 66q0 40 -24.5 60t-72.5 29l-136 24q-183 32 -183 195q0 92 72 153
t197 61q117 0 192.5 -56t87.5 -153zM504 896l-117 -129h-127l91 129h153z" />
    <glyph glyph-name="sacute" unicode="&#x15b;" horiz-adv-x="546" 
d="M492 373h-139q-9 46 -83 46q-75 0 -75 -44q0 -19 12.5 -27.5t42.5 -14.5l93 -14q164 -25 164 -165q0 -69 -60 -118t-168 -49q-114 0 -173.5 46t-68.5 129h139q10 -67 102 -67q89 0 89 56q0 25 -17 37.5t-57 19.5l-100 16q-138 26 -138 142q0 71 55.5 116t163.5 45
q95 0 152.5 -42t65.5 -112zM437 727l-117 -145h-123l92 145h148z" />
    <glyph glyph-name="Scedilla" unicode="&#x15e;" horiz-adv-x="690" 
d="M619 518h-152q-18 81 -130 81q-51 0 -84 -20.5t-33 -60.5q0 -57 89 -73l133 -24q194 -36 194 -209q0 -96 -74 -160.5t-213 -64.5h-8l-17 -45h14q13 10 39 10q33 0 55 -23.5t22 -62.5q0 -40 -28.5 -67.5t-84.5 -27.5q-48 0 -75.5 24t-29.5 57h72q6 -25 35 -25q16 0 26 9.5
t10 25.5t-10 25t-26 9q-19 0 -31 -12h-62l41 107q-109 13 -173.5 72.5t-73.5 154.5h152q17 -103 159 -103q60 0 95.5 24t35.5 66q0 40 -24.5 60t-72.5 29l-136 24q-183 32 -183 195q0 92 72 153t197 61q117 0 192.5 -56t87.5 -153z" />
    <glyph glyph-name="scedilla" unicode="&#x15f;" horiz-adv-x="546" 
d="M492 373h-139q-9 46 -83 46q-75 0 -75 -44q0 -19 12.5 -27.5t42.5 -14.5l93 -14q164 -25 164 -165q0 -69 -60 -118t-168 -49h-10l-17 -45h14q13 10 39 10q33 0 55 -23.5t22 -62.5q0 -40 -28.5 -67.5t-84.5 -27.5q-48 0 -75.5 24t-29.5 57h72q6 -25 35 -25q16 0 26 9.5
t10 25.5t-10 25t-26 9q-19 0 -31 -12h-62l41 107q-169 23 -182 171h139q10 -67 102 -67q89 0 89 56q0 25 -17 37.5t-57 19.5l-100 16q-138 26 -138 142q0 71 55.5 116t163.5 45q95 0 152.5 -42t65.5 -112z" />
    <glyph glyph-name="Scaron" unicode="&#x160;" horiz-adv-x="690" 
d="M619 518h-152q-18 81 -130 81q-51 0 -84 -20.5t-33 -60.5q0 -57 89 -73l133 -24q194 -36 194 -209q0 -96 -74 -160.5t-213 -64.5q-134 0 -214 62t-91 169h152q17 -103 159 -103q60 0 95.5 24t35.5 66q0 40 -24.5 60t-72.5 29l-136 24q-183 32 -183 195q0 92 72 153
t197 61q117 0 192.5 -56t87.5 -153zM281 767l-109 129h111l46 -55h26l47 55h109l-109 -129h-121z" />
    <glyph glyph-name="scaron" unicode="&#x161;" horiz-adv-x="546" 
d="M492 373h-139q-9 46 -83 46q-75 0 -75 -44q0 -19 12.5 -27.5t42.5 -14.5l93 -14q164 -25 164 -165q0 -69 -60 -118t-168 -49q-114 0 -173.5 46t-68.5 129h139q10 -67 102 -67q89 0 89 56q0 25 -17 37.5t-57 19.5l-100 16q-138 26 -138 142q0 71 55.5 116t163.5 45
q95 0 152.5 -42t65.5 -112zM216 582l-110 145h106l51 -66h26l51 66h105l-110 -145h-119z" />
    <glyph glyph-name="uni0162" unicode="&#x162;" horiz-adv-x="625" 
d="M609 714v-131h-222v-583h-149v583h-222v131h593zM314 -232h-82l69 62v21h-59v95h140v-116z" />
    <glyph glyph-name="uni0163" unicode="&#x163;" horiz-adv-x="405" 
d="M239 514h113v-117h-113v-221q0 -57 66 -57h47v-119h-49q-97 0 -150.5 35.5t-53.5 123.5v238h-75v117h75v144h140v-144zM231 -232h-82l69 62v21h-59v95h140v-116z" />
    <glyph glyph-name="Tcaron" unicode="&#x164;" horiz-adv-x="625" 
d="M609 714v-131h-222v-583h-149v583h-222v131h593zM252 767l-109 129h111l46 -55h26l47 55h109l-109 -129h-121z" />
    <glyph glyph-name="tcaron" unicode="&#x165;" horiz-adv-x="443" 
d="M395 669h-68v121h147v-146l-76 -82h-79l76 82v25zM239 514h113v-117h-113v-221q0 -57 66 -57h47v-119h-49q-97 0 -150.5 35.5t-53.5 123.5v238h-75v117h75v144h140v-144z" />
    <glyph glyph-name="Tbar" unicode="&#x166;" horiz-adv-x="625" 
d="M609 714v-131h-222v-164h145v-114h-145v-305h-149v305h-146v114h146v164h-222v131h593z" />
    <glyph glyph-name="tbar" unicode="&#x167;" horiz-adv-x="402" 
d="M239 514h113v-104h-113v-78h113v-104h-113v-52q0 -57 66 -57h47v-119h-49q-97 0 -150.5 35.5t-53.5 123.5v69h-75v104h75v78h-75v104h75v144h140v-144z" />
    <glyph glyph-name="Utilde" unicode="&#x168;" horiz-adv-x="760" 
d="M530 714h149v-451q0 -133 -77.5 -204.5t-222.5 -71.5q-143 0 -220.5 71.5t-77.5 204.5v451h149v-448q0 -67 39.5 -106.5t110.5 -39.5q72 0 111 39.5t39 106.5v448zM484 896h64q0 -61 -26 -95.5t-77 -34.5q-34 0 -75.5 23.5t-61.5 23.5q-17 0 -23.5 -11.5t-7.5 -34.5h-63
q0 61 25.5 95.5t76.5 34.5q34 0 76 -23t63 -23q27 0 29 45z" />
    <glyph glyph-name="utilde" unicode="&#x169;" horiz-adv-x="635" 
d="M67 514h140v-291q0 -54 25.5 -83t74.5 -29q51 0 82.5 38t31.5 92v273h140v-514h-135v47h-26q-46 -60 -143 -60q-95 0 -142.5 55t-47.5 156v316zM418 724h63q0 -65 -26 -102.5t-76 -37.5q-34 0 -75.5 28.5t-59.5 28.5q-33 0 -33 -57h-63q0 65 26 102.5t76 37.5
q34 0 76 -28.5t60 -28.5q32 0 32 57z" />
    <glyph glyph-name="Umacron" unicode="&#x16a;" horiz-adv-x="760" 
d="M530 714h149v-451q0 -133 -77.5 -204.5t-222.5 -71.5q-143 0 -220.5 71.5t-77.5 204.5v451h149v-448q0 -67 39.5 -106.5t110.5 -39.5q72 0 111 39.5t39 106.5v448zM531 795h-302v82h302v-82z" />
    <glyph glyph-name="umacron" unicode="&#x16b;" horiz-adv-x="635" 
d="M68 514h140v-291q0 -54 25.5 -83t74.5 -29q51 0 82.5 38t31.5 92v273h140v-514h-135v47h-26q-47 -60 -143 -60q-95 0 -142.5 55t-47.5 156v316zM465 619h-302v85h302v-85z" />
    <glyph glyph-name="Uring" unicode="&#x16e;" horiz-adv-x="760" 
d="M530 714h149v-451q0 -133 -77.5 -204.5t-222.5 -71.5q-143 0 -220.5 71.5t-77.5 204.5v451h149v-448q0 -67 39.5 -106.5t110.5 -39.5q72 0 111 39.5t39 106.5v448zM379 978q50 0 84 -33.5t34 -81.5t-34 -81.5t-84 -33.5q-48 0 -83 33.5t-35 81.5t35 81.5t83 33.5z
M379 812q21 0 36 15t15 36t-15 36t-36 15q-20 0 -35 -15t-15 -36t15 -36t35 -15z" />
    <glyph glyph-name="uring" unicode="&#x16f;" horiz-adv-x="635" 
d="M68 514h140v-291q0 -54 25.5 -83t74.5 -29q51 0 82.5 38t31.5 92v273h140v-514h-135v47h-26q-47 -60 -143 -60q-95 0 -142.5 55t-47.5 156v316zM314 801q50 0 84 -33.5t34 -81.5t-34 -81.5t-84 -33.5q-48 0 -83 33.5t-35 81.5t35 81.5t83 33.5zM314 636q21 0 36 14.5
t15 35.5t-15 36t-36 15q-20 0 -35 -15t-15 -36t15 -35.5t35 -14.5z" />
    <glyph glyph-name="Uhungarumlaut" unicode="&#x170;" horiz-adv-x="760" 
d="M530 714h149v-451q0 -133 -77.5 -204.5t-222.5 -71.5q-143 0 -220.5 71.5t-77.5 204.5v451h149v-448q0 -67 39.5 -106.5t110.5 -39.5q72 0 111 39.5t39 106.5v448zM441 896l-101 -129h-111l77 129h135zM625 896l-102 -129h-110l78 129h134z" />
    <glyph glyph-name="uhungarumlaut" unicode="&#x171;" horiz-adv-x="635" 
d="M68 514h140v-291q0 -54 25.5 -83t74.5 -29q51 0 82.5 38t31.5 92v273h140v-514h-135v47h-26q-47 -60 -143 -60q-95 0 -142.5 55t-47.5 156v316zM355 727l-97 -145h-111l74 145h134zM539 727l-98 -145h-110l74 145h134z" />
    <glyph glyph-name="Uogonek" unicode="&#x172;" horiz-adv-x="760" 
d="M530 714h149v-451q0 -189 -153 -251q-53 -21 -74 -40.5t-21 -44.5q0 -45 60 -45v-82h-30q-69 0 -101.5 26t-32.5 70q0 56 51 91q-143 1 -220 72t-77 204v451h149v-448q0 -67 39.5 -106.5t110.5 -39.5q72 0 111 39.5t39 106.5v448z" />
    <glyph glyph-name="uogonek" unicode="&#x173;" horiz-adv-x="635" 
d="M68 514h140v-291q0 -54 25.5 -83t74.5 -29q51 0 82.5 38t31.5 92v273h140v-514q-58 -31 -58 -73q0 -45 60 -45v-82h-30q-69 0 -101.5 26t-32.5 70q0 31 19 59.5t56 44.5h-48v47h-26q-47 -60 -143 -60q-95 0 -142.5 55t-47.5 156v316z" />
    <glyph glyph-name="Ydieresis" unicode="&#x178;" horiz-adv-x="679" 
d="M325 429h28l153 285h158l-250 -460v-254h-150v254l-249 460h157zM496 782h-117v114h117v-114zM300 782h-118v114h118v-114z" />
    <glyph glyph-name="Zacute" unicode="&#x179;" horiz-adv-x="666" 
d="M606 714v-161l-372 -392v-28h388v-133h-578v161l374 392v28h-347v133h535zM502 896l-117 -129h-127l91 129h153z" />
    <glyph glyph-name="zacute" unicode="&#x17a;" horiz-adv-x="554" 
d="M504 0h-454v142l257 229v26h-241v117h430v-143l-257 -229v-26h265v-116zM433 727l-117 -145h-123l92 145h148z" />
    <glyph glyph-name="Zdotaccent" unicode="&#x17b;" horiz-adv-x="666" 
d="M606 714v-161l-372 -392v-28h388v-133h-578v161l374 392v28h-347v133h535zM404 782h-142v114h142v-114z" />
    <glyph glyph-name="zdotaccent" unicode="&#x17c;" horiz-adv-x="554" 
d="M504 0h-454v142l257 229v26h-241v117h430v-143l-257 -229v-26h265v-116zM346 602h-142v125h142v-125z" />
    <glyph glyph-name="Zcaron" unicode="&#x17d;" horiz-adv-x="666" 
d="M606 714v-161l-372 -392v-28h388v-133h-578v161l374 392v28h-347v133h535zM273 767l-109 129h111l46 -55h26l47 55h109l-109 -129h-121z" />
    <glyph glyph-name="zcaron" unicode="&#x17e;" horiz-adv-x="554" 
d="M504 0h-454v142l257 229v26h-241v117h430v-143l-257 -229v-26h265v-116zM225 582l-110 145h106l51 -66h26l51 66h105l-110 -145h-119z" />
    <glyph glyph-name="florin" unicode="&#x192;" horiz-adv-x="460" 
d="M179 -200h-139l92 529h-89v117h110l12 69q20 114 77.5 163t158.5 49h49v-117h-42q-48 0 -71 -26t-35 -84l-10 -54h106v-117h-126z" />
    <glyph glyph-name="circumflex" unicode="&#x2c6;" horiz-adv-x="419" 
d="M269 727l110 -145h-106l-52 66h-26l-51 -66h-104l110 145h119z" />
    <glyph glyph-name="caron" unicode="&#x2c7;" horiz-adv-x="419" 
d="M150 582l-110 145h106l51 -66h26l51 66h105l-110 -145h-119z" />
    <glyph glyph-name="breve" unicode="&#x2d8;" horiz-adv-x="369" 
d="M246 727h83q0 -68 -37 -106.5t-107 -38.5q-71 0 -108 39t-37 106h84q0 -68 61 -68t61 68z" />
    <glyph glyph-name="dotaccent" unicode="&#x2d9;" horiz-adv-x="222" 
d="M182 602h-142v125h142v-125z" />
    <glyph glyph-name="ring" unicode="&#x2da;" horiz-adv-x="316" 
d="M158 801q50 0 84 -33.5t34 -81.5t-34 -81.5t-84 -33.5q-48 0 -83 33.5t-35 81.5t35 81.5t83 33.5zM158 636q21 0 36 14.5t15 35.5t-15 36t-36 15q-20 0 -35 -15t-15 -36t15 -35.5t35 -14.5z" />
    <glyph glyph-name="ogonek" unicode="&#x2db;" horiz-adv-x="243" 
d="M136 9l60 -9q-58 -31 -58 -73q0 -45 60 -45v-82h-30q-69 0 -101.5 26t-32.5 70q0 36 26 68.5t76 44.5z" />
    <glyph glyph-name="tilde" unicode="&#x2dc;" horiz-adv-x="413" 
d="M310 724h63q0 -65 -26 -102.5t-76 -37.5q-34 0 -75.5 28.5t-59.5 28.5q-33 0 -33 -57h-63q0 65 26 102.5t76 37.5q34 0 76 -28.5t60 -28.5q32 0 32 57z" />
    <glyph glyph-name="hungarumlaut" unicode="&#x2dd;" horiz-adv-x="472" 
d="M248 727l-97 -145h-111l74 145h134zM432 727l-98 -145h-110l74 145h134z" />
    <glyph glyph-name="uni03A9" unicode="&#x3a9;" horiz-adv-x="772" 
d="M606 143v-26h115v-117h-294v122q142 96 142 256q0 101 -50.5 158.5t-132.5 57.5q-83 0 -133.5 -57.5t-50.5 -158.5q0 -161 141 -256v-122h-293v117h115v26q-51 39 -83.5 102.5t-32.5 146.5q0 147 90.5 241t246.5 94q155 0 245 -93.5t90 -241.5q0 -160 -115 -249z" />
    <glyph glyph-name="pi" unicode="&#x3c0;" horiz-adv-x="646" 
d="M601 0h-56q-92 0 -132.5 40.5t-40.5 133.5v223h-131v-397h-140v397h-77v117h576v-117h-88v-216q0 -34 12 -49.5t42 -15.5h35v-116z" />
    <glyph glyph-name="uni0401" unicode="&#x401;" horiz-adv-x="666" 
d="M232 133h390v-133h-539v714h528v-133h-379v-150h295v-130h-295v-168zM502 782h-117v114h117v-114zM306 782h-118v114h118v-114z" />
    <glyph glyph-name="uni0402" unicode="&#x402;" horiz-adv-x="829" 
d="M781 211q0 -119 -67.5 -171.5t-178.5 -52.5q-46 0 -53 4v133q16 -4 38 -4q108 0 108 89q0 92 -144 92q-66 0 -127 -14v-287h-149v583h-192v131h587v-131h-246v-164q65 15 157 15q140 0 203.5 -63.5t63.5 -159.5z" />
    <glyph glyph-name="uni0403" unicode="&#x403;" horiz-adv-x="638" 
d="M491 902l-117 -145h-123l92 145h148zM598 581h-366v-581h-149v714h515v-133z" />
    <glyph glyph-name="uni0404" unicode="&#x404;" horiz-adv-x="735" 
d="M531 211h156q-14 -100 -94.5 -162t-203.5 -62q-159 0 -249.5 102t-90.5 268q0 168 89.5 269t249.5 101q116 0 194.5 -58.5t96.5 -155.5h-155q-27 81 -138 81q-76 0 -121.5 -45t-55.5 -122h264v-130h-265q9 -81 55 -129t125 -48q57 0 94.5 24t48.5 67z" />
    <glyph glyph-name="uni0405" unicode="&#x405;" horiz-adv-x="690" 
d="M619 518h-152q-18 81 -130 81q-51 0 -84 -20.5t-33 -60.5q0 -57 89 -73l133 -24q194 -36 194 -209q0 -96 -74 -160.5t-213 -64.5q-134 0 -214 62t-91 169h152q17 -103 159 -103q60 0 95.5 24t35.5 66q0 40 -24.5 60t-72.5 29l-136 24q-183 32 -183 195q0 92 72 153
t197 61q117 0 192.5 -56t87.5 -153z" />
    <glyph glyph-name="uni0406" unicode="&#x406;" horiz-adv-x="324" 
d="M88 714h149v-714h-149v714z" />
    <glyph glyph-name="uni0407" unicode="&#x407;" horiz-adv-x="325" 
d="M88 714h149v-714h-149v714zM320 782h-117v114h117v-114zM124 782h-118v114h118v-114z" />
    <glyph glyph-name="uni0408" unicode="&#x408;" horiz-adv-x="604" 
d="M280 -13q-111 0 -179 62.5t-72 177.5h148q8 -107 102 -107q95 0 95 121v473h149v-474q0 -120 -64.5 -186.5t-178.5 -66.5z" />
    <glyph glyph-name="uni0409" unicode="&#x409;" horiz-adv-x="1150" 
d="M675 131h139q73 0 104.5 26t31.5 79q0 52 -32 78.5t-104 26.5h-139v-210zM158 714h517v-242h162q126 0 195.5 -62t69.5 -173q0 -112 -69.5 -174.5t-195.5 -62.5h-312v581h-226v-193q0 -99 -10.5 -167.5t-28.5 -112t-50.5 -67.5t-70 -32.5t-92.5 -8.5h-26v146h25
q44 0 65.5 14.5t34 70t12.5 167.5v316z" />
    <glyph glyph-name="uni040A" unicode="&#x40a;" horiz-adv-x="1162" 
d="M850 0h-312v299h-306v-299h-149v714h149v-278h306v278h149v-242h163q125 0 194.5 -62t69.5 -173q0 -112 -69 -174.5t-195 -62.5zM687 131h139q73 0 104.5 26t31.5 79t-31.5 79t-104.5 26h-139v-210z" />
    <glyph glyph-name="uni040B" unicode="&#x40b;" horiz-adv-x="832" 
d="M778 0h-149v182q0 23 -1 35.5t-9 31t-22.5 28t-44 17t-72.5 7.5q-66 0 -123 -16v-285h-149v583h-192v131h587v-131h-246v-166q74 17 159 17q53 0 94 -7t68.5 -18t46.5 -30t29.5 -36t16 -43t6.5 -45.5t1 -48.5v-206z" />
    <glyph glyph-name="uni040C" unicode="&#x40c;" horiz-adv-x="736" 
d="M83 0v714h149v-279h169l131 279h154l-160 -347l169 -367h-154l-139 300h-170v-300h-149zM542 896l-117 -129h-127l91 129h153z" />
    <glyph glyph-name="uni040E" unicode="&#x40e;" horiz-adv-x="682" 
d="M334 394h28l151 320h151l-342 -714h-149l102 214l-264 500h156zM422 904h110q-6 -73 -55.5 -113.5t-133.5 -40.5t-133.5 40.5t-55.5 113.5h110q3 -28 23.5 -45t55.5 -17t55 17t24 45z" />
    <glyph glyph-name="uni040F" unicode="&#x40f;" horiz-adv-x="768" 
d="M310 -175v175h-227v714h149v-581h305v581h149v-714h-227v-175h-149z" />
    <glyph glyph-name="uni0410" unicode="&#x410;" horiz-adv-x="722" 
d="M553 0l-58 193h-272l-58 -193h-147l227 714h231l228 -714h-151zM336 571l-75 -248h194l-75 248h-44z" />
    <glyph glyph-name="uni0411" unicode="&#x411;" horiz-adv-x="717" 
d="M232 445h188q119 0 184 -58.5t65 -163.5t-65 -164t-184 -59h-337v714h523v-133h-374v-136zM232 131h160q67 0 95.5 22.5t28.5 71.5q0 48 -28.5 71.5t-95.5 23.5h-160v-189z" />
    <glyph glyph-name="uni0412" unicode="&#x412;" horiz-adv-x="724" 
d="M580 384v-26q40 -18 66.5 -59t26.5 -92q0 -94 -62 -150.5t-184 -56.5h-344v714h335q113 0 174 -54t61 -135q0 -48 -19.5 -85.5t-53.5 -55.5zM232 431h168q100 0 100 80q0 79 -101 79h-167v-159zM232 127h173q115 0 115 88q0 91 -113 91h-175v-179z" />
    <glyph glyph-name="uni0413" unicode="&#x413;" horiz-adv-x="638" 
d="M598 581h-366v-581h-149v714h515v-133z" />
    <glyph glyph-name="uni0414" unicode="&#x414;" horiz-adv-x="799" 
d="M673 133h102v-308h-145v175h-469v-175h-145v308h74q85 151 85 424v157h498v-581zM528 133v448h-215v-63q0 -250 -72 -385h287z" />
    <glyph glyph-name="uni0415" unicode="&#x415;" horiz-adv-x="666" 
d="M232 133h390v-133h-539v714h528v-133h-379v-150h295v-130h-295v-168z" />
    <glyph glyph-name="uni0416" unicode="&#x416;" horiz-adv-x="1077" 
d="M759 295h-148v-295h-145v295h-148l-121 -295h-152l151 362l-142 352h152l112 -284h148v284h145v-284h148l112 284h152l-142 -352l151 -362h-152z" />
    <glyph glyph-name="uni0417" unicode="&#x417;" horiz-adv-x="696" 
d="M466 513q0 39 -32.5 60t-83.5 21q-114 0 -130 -82h-154q11 102 86.5 158.5t199.5 56.5t195.5 -54.5t71.5 -141.5q0 -100 -72 -139v-26q98 -36 98 -159q0 -95 -78.5 -157.5t-213.5 -62.5q-144 0 -222.5 60t-91.5 170h157q25 -97 157 -97q63 0 99.5 25t36.5 68
q0 89 -125 89h-105v130h105q102 0 102 81z" />
    <glyph glyph-name="uni0418" unicode="&#x418;" horiz-adv-x="788" 
d="M83 714h139v-498h26l257 498h201v-714h-140v509h-26l-263 -509h-194v714z" />
    <glyph glyph-name="uni0419" unicode="&#x419;" horiz-adv-x="788" 
d="M83 714h139v-498h26l257 498h201v-714h-140v509h-26l-263 -509h-194v714zM473 904h110q-6 -73 -55.5 -113.5t-133.5 -40.5t-133.5 40.5t-55.5 113.5h110q3 -28 23.5 -45t55.5 -17t55 17t24 45z" />
    <glyph glyph-name="uni041A" unicode="&#x41a;" horiz-adv-x="716" 
d="M83 0v714h149v-279h169l131 279h154l-160 -347l169 -367h-154l-139 300h-170v-300h-149z" />
    <glyph glyph-name="uni041B" unicode="&#x41b;" horiz-adv-x="763" 
d="M21 146h25q44 0 65.5 14.5t34 70t12.5 167.5v316h523v-714h-150v581h-232v-193q0 -99 -10.5 -167.5t-28.5 -112t-50.5 -67.5t-70 -32.5t-92.5 -8.5h-26v146z" />
    <glyph glyph-name="uni041C" unicode="&#x41c;" horiz-adv-x="883" 
d="M83 0v714h229l117 -288h26l116 288h230v-714h-139v532h-26l-120 -288h-149l-119 288h-26v-532h-139z" />
    <glyph glyph-name="uni041D" unicode="&#x41d;" horiz-adv-x="779" 
d="M548 714h149v-714h-149v299h-316v-299h-149v714h149v-278h316v278z" />
    <glyph glyph-name="uni041E" unicode="&#x41e;" horiz-adv-x="794" 
d="M397 727q165 0 256.5 -103.5t91.5 -266.5t-91.5 -266.5t-256.5 -103.5t-256.5 103.5t-91.5 266.5t91.5 266.5t256.5 103.5zM397 120q96 0 145.5 66t49.5 171t-49.5 171t-145.5 66q-95 0 -145 -66.5t-50 -170.5t50 -170.5t145 -66.5z" />
    <glyph glyph-name="uni041F" unicode="&#x41f;" horiz-adv-x="771" 
d="M83 714h606v-714h-149v581h-308v-581h-149v714z" />
    <glyph glyph-name="uni0420" unicode="&#x420;" horiz-adv-x="715" 
d="M83 714h326q123 0 190.5 -60t67.5 -167q0 -109 -67.5 -170t-190.5 -61h-177v-256h-149v714zM232 387h156q67 0 96.5 24.5t29.5 73.5t-29.5 73.5t-96.5 24.5h-156v-196z" />
    <glyph glyph-name="uni0421" unicode="&#x421;" horiz-adv-x="737" 
d="M534 228h155q-16 -109 -95.5 -175t-202.5 -66q-161 0 -251.5 101.5t-90.5 268.5t91 268.5t251 101.5q117 0 195 -60.5t96 -160.5h-156q-25 88 -135 88q-92 0 -140.5 -66.5t-48.5 -170.5t48.5 -170.5t140.5 -66.5q57 0 94.5 28.5t48.5 79.5z" />
    <glyph glyph-name="uni0422" unicode="&#x422;" horiz-adv-x="625" 
d="M609 714v-131h-222v-583h-149v583h-222v131h593z" />
    <glyph glyph-name="uni0423" unicode="&#x423;" horiz-adv-x="682" 
d="M334 394h28l151 320h151l-342 -714h-149l102 214l-264 500h156z" />
    <glyph glyph-name="uni0424" unicode="&#x424;" horiz-adv-x="897" 
d="M519 653h10q148 0 236.5 -74t88.5 -212q0 -140 -88 -213t-237 -73h-10v-94h-142v94h-9q-151 0 -238.5 72.5t-87.5 213.5q0 138 89 212t237 74h9v84h142v-84zM368 208h9v318h-9q-83 0 -130 -39t-47 -120q0 -80 46.5 -119.5t130.5 -39.5zM519 208h10q83 0 129.5 39.5
t46.5 119.5q0 159 -176 159h-10v-318z" />
    <glyph glyph-name="uni0425" unicode="&#x425;" horiz-adv-x="694" 
d="M511 0l-149 294h-31l-152 -294h-160l197 375l-170 339h153l133 -262h31l137 262h151l-173 -335l197 -379h-164z" />
    <glyph glyph-name="uni0426" unicode="&#x426;" horiz-adv-x="811" 
d="M642 -175v175h-559v714h149v-581h304v581h149v-581h102v-308h-145z" />
    <glyph glyph-name="uni0427" unicode="&#x427;" horiz-adv-x="705" 
d="M53 714h149v-204q0 -23 1 -35t9 -30.5t22.5 -28t44 -17t72.5 -7.5q66 0 123 16v306h149v-714h-149v276q-73 -17 -159 -17q-61 0 -106.5 8.5t-73.5 26t-45.5 36.5t-25 48.5t-9.5 51.5t-2 57v227z" />
    <glyph glyph-name="uni0428" unicode="&#x428;" horiz-adv-x="1052" 
d="M454 133v581h145v-581h226v581h145v-714h-887v714h145v-581h226z" />
    <glyph glyph-name="uni0429" unicode="&#x429;" horiz-adv-x="1096" 
d="M927 -175v175h-844v714h145v-581h226v581h145v-581h226v581h145v-581h102v-308h-145z" />
    <glyph glyph-name="uni042A" unicode="&#x42a;" horiz-adv-x="823" 
d="M510 0h-321v581h-182v133h331v-242h172q126 0 195.5 -62t69.5 -173q0 -112 -69.5 -174.5t-195.5 -62.5zM338 131h149q72 0 103.5 26t31.5 79q0 52 -31.5 78.5t-103.5 26.5h-149v-210z" />
    <glyph glyph-name="uni042B" unicode="&#x42b;" horiz-adv-x="956" 
d="M725 714h149v-714h-149v714zM232 131h126q72 0 103.5 26t31.5 79q0 52 -31.5 78.5t-103.5 26.5h-126v-210zM381 0h-298v714h149v-242h149q126 0 195.5 -62t69.5 -173q0 -112 -69.5 -174.5t-195.5 -62.5z" />
    <glyph glyph-name="uni042C" unicode="&#x42c;" horiz-adv-x="717" 
d="M232 131h148q73 0 104.5 26.5t31.5 79.5t-31.5 78.5t-104.5 25.5h-148v-210zM405 0h-322v714h149v-242h173q125 0 194.5 -62t69.5 -173q0 -112 -69 -174.5t-195 -62.5z" />
    <glyph glyph-name="uni042D" unicode="&#x42d;" horiz-adv-x="726" 
d="M39 211h156q11 -43 48.5 -67t94.5 -24q79 0 125 48t55 129h-265v130h264q-10 77 -55.5 122t-121.5 45q-111 0 -138 -81h-155q18 97 96.5 155.5t194.5 58.5q160 0 249.5 -101t89.5 -269q0 -166 -90.5 -268t-249.5 -102q-123 0 -203.5 62t-94.5 162z" />
    <glyph glyph-name="uni042E" unicode="&#x42e;" horiz-adv-x="1084" 
d="M692 727q161 0 252 -103.5t91 -266.5t-91 -266.5t-252 -103.5q-146 0 -235 86.5t-104 225.5h-121v-299h-149v714h149v-278h124q21 131 108.5 211t227.5 80zM692 120q92 0 141 66.5t49 170.5t-49 170.5t-141 66.5t-141 -66.5t-49 -170.5t49 -170.5t141 -66.5z" />
    <glyph glyph-name="uni042F" unicode="&#x42f;" horiz-adv-x="720" 
d="M302 714h336v-714h-149v269h-193l-96 -269h-150l107 301q-106 56 -106 191q0 105 66 163.5t185 58.5zM489 396v187h-151q-74 0 -104.5 -21.5t-30.5 -71.5q0 -47 28 -70.5t92 -23.5h166z" />
    <glyph glyph-name="uni0430" unicode="&#x430;" horiz-adv-x="586" 
d="M390 0v44h-26q-49 -57 -144 -57q-84 0 -133 49.5t-49 121.5q0 69 52 120t157 51h137v13q0 80 -91 80q-81 0 -87 -55h-139q2 73 63 116.5t156 43.5q110 0 171.5 -47t61.5 -146v-334h-129zM269 98q51 0 83 30t32 78v32h-110q-96 0 -96 -69q0 -71 91 -71z" />
    <glyph glyph-name="uni0431" unicode="&#x431;" horiz-adv-x="625" 
d="M335 497q110 0 177.5 -71.5t67.5 -183.5t-73.5 -183.5t-192.5 -71.5q-128 0 -198.5 81t-70.5 236q0 332 203 364l132 21q30 5 40 12.5t12 25.5h113q0 -55 -21 -92t-83 -48l-169 -27q-54 -8 -82 -39t-39 -94h26q49 70 158 70zM313 103q62 0 94 41t32 102t-32 101t-94 40
q-63 0 -95 -40t-32 -101t32.5 -102t94.5 -41z" />
    <glyph glyph-name="uni0432" unicode="&#x432;" horiz-adv-x="605" 
d="M471 285v-26q39 -10 63 -40t24 -77q0 -142 -182 -142h-302v514h294q77 0 119.5 -34.5t42.5 -95.5q0 -70 -59 -99zM211 101h133q73 0 73 57q0 58 -73 58h-133v-115zM211 413v-99h119q60 0 60 49q0 50 -60 50h-119z" />
    <glyph glyph-name="uni0433" unicode="&#x433;" horiz-adv-x="519" 
d="M74 0v514h416v-117h-276v-397h-140z" />
    <glyph glyph-name="uni0434" unicode="&#x434;" horiz-adv-x="693" 
d="M573 116h91v-259h-132v143h-381v-143h-132v259h76q45 115 45 250v148h433v-398zM433 116v281h-167v-32q0 -143 -38 -249h205z" />
    <glyph glyph-name="uni0435" unicode="&#x435;" horiz-adv-x="597" 
d="M552 283v-42h-368q6 -138 125 -138q76 0 96 54h142q-16 -80 -77 -125t-163 -45q-121 0 -191.5 74t-70.5 198q0 123 70 195.5t189 72.5q114 0 180 -68t68 -176zM303 422q-92 0 -114 -88h220q-14 88 -106 88z" />
    <glyph glyph-name="uni0436" unicode="&#x436;" horiz-adv-x="867" 
d="M270 204l-93 -204h-142l121 264l-113 250h140l87 -193h99v193h130v-193h98l87 193h141l-114 -250l122 -264h-143l-93 204h-98v-204h-130v204h-99z" />
    <glyph glyph-name="uni0437" unicode="&#x437;" horiz-adv-x="570" 
d="M367 363q0 50 -88 50q-84 0 -96 -56h-128q8 84 71 127t163 43t158.5 -41.5t58.5 -106.5q0 -75 -52 -98v-26q67 -22 67 -106q0 -71 -64 -116.5t-168 -45.5q-118 0 -180.5 45.5t-71.5 128.5h129q17 -60 116 -60t99 55q0 27 -19.5 39t-63.5 12h-84v107h79q74 0 74 49z" />
    <glyph glyph-name="uni0438" unicode="&#x438;" horiz-adv-x="645" 
d="M210 0h-136v514h136v-290h24l199 290h138v-514h-136v289h-24z" />
    <glyph glyph-name="uni0439" unicode="&#x439;" horiz-adv-x="645" 
d="M210 0h-136v514h136v-290h24l199 290h138v-514h-136v289h-24zM396 718h108q-6 -71 -52.5 -110.5t-129.5 -39.5t-129 39.5t-52 110.5h108q3 -27 21 -44t52 -17q67 0 74 61z" />
    <glyph glyph-name="uni043A" unicode="&#x43a;" horiz-adv-x="611" 
d="M430 0l-104 205h-112v-205h-140v514h140v-192h114l98 192h143l-126 -248l134 -266h-147z" />
    <glyph glyph-name="uni043B" unicode="&#x43b;" horiz-adv-x="647" 
d="M22 0v134h18q50 0 72 35.5t22 128.5v216h439v-514h-140v397h-170v-104q0 -161 -53 -227t-170 -66h-18z" />
    <glyph glyph-name="uni043C" unicode="&#x43c;" horiz-adv-x="753" 
d="M74 0v514h186l104 -216h26l104 216h185v-514h-136v328h-26l-82 -166h-117l-82 166h-26v-328h-136z" />
    <glyph glyph-name="uni043D" unicode="&#x43d;" 
d="M568 0h-140v205h-214v-205h-140v514h140v-192h214v192h140v-514z" />
    <glyph glyph-name="uni043E" unicode="&#x43e;" horiz-adv-x="622" 
d="M311 527q122 0 194 -74t72 -196t-72 -196t-194 -74q-121 0 -193.5 74.5t-72.5 195.5t72.5 195.5t193.5 74.5zM311 103q63 0 94.5 43.5t31.5 110.5q0 66 -31.5 109.5t-94.5 43.5q-62 0 -94 -43.5t-32 -109.5q0 -67 32 -110.5t94 -43.5z" />
    <glyph glyph-name="uni043F" unicode="&#x43f;" horiz-adv-x="638" 
d="M564 0h-140v397h-210v-397h-140v514h490v-514z" />
    <glyph glyph-name="uni0440" unicode="&#x440;" 
d="M334 410q-62 0 -93.5 -43.5t-31.5 -109.5t31.5 -110t93.5 -44q60 0 91.5 43t31.5 111q0 67 -31.5 110t-91.5 43zM74 514h135v-47h26q48 60 144 60q100 0 159 -75.5t59 -194.5q0 -120 -59 -195t-159 -75q-94 0 -139 60h-26v-247h-140v714z" />
    <glyph glyph-name="uni0441" unicode="&#x441;" horiz-adv-x="583" 
d="M401 173h138q-10 -84 -74.5 -135t-160.5 -51q-119 0 -189 73.5t-70 196.5q0 122 70 196t189 74q96 0 158.5 -48.5t72.5 -128.5h-139q-17 60 -91 60q-62 0 -91 -42t-29 -110t29.5 -111.5t90.5 -43.5q83 0 96 70z" />
    <glyph glyph-name="uni0442" unicode="&#x442;" horiz-adv-x="537" 
d="M30 397v117h477v-117h-168v-397h-140v397h-169z" />
    <glyph glyph-name="uni0443" unicode="&#x443;" horiz-adv-x="594" 
d="M267 -200h-140l109 253l-218 461h146l128 -274h26l118 274h141z" />
    <glyph glyph-name="uni0444" unicode="&#x444;" horiz-adv-x="782" 
d="M459 0v-200h-136v200h-9q-127 0 -198 71.5t-71 185.5q0 113 69.5 184t194.5 73h14v213h136v-213h14q123 -2 193.5 -73t70.5 -184q0 -116 -73.5 -186.5t-204.5 -70.5zM182 257q0 -64 33.5 -105.5t96.5 -43.5h11v298h-10q-64 -2 -97.5 -44t-33.5 -105zM459 108h8
q65 2 98.5 43.5t33.5 105.5t-33.5 105.5t-98.5 43.5h-8v-298z" />
    <glyph glyph-name="uni0445" unicode="&#x445;" horiz-adv-x="604" 
d="M420 0l-100 189h-37l-102 -189h-148l147 264l-132 250h145l92 -177h37l94 177h143l-134 -248l146 -266h-151z" />
    <glyph glyph-name="uni0446" unicode="&#x446;" horiz-adv-x="680" 
d="M420 514h140v-398h91v-259h-132v143h-445v514h140v-398h206v398z" />
    <glyph glyph-name="uni0447" unicode="&#x447;" horiz-adv-x="587" 
d="M45 514h141v-150q0 -17 2.5 -28.5t11.5 -24t30 -19t53 -6.5q51 0 97 11v217h140v-514h-140v184q-67 -14 -143 -14q-62 0 -102.5 13.5t-59 39.5t-24.5 52t-6 62v177z" />
    <glyph glyph-name="uni0448" unicode="&#x448;" horiz-adv-x="860" 
d="M651 514h135v-514h-712v514h136v-398h153v398h135v-398h153v398z" />
    <glyph glyph-name="uni0449" unicode="&#x449;" horiz-adv-x="906" 
d="M651 514h135v-398h91v-259h-132v143h-671v514h136v-398h153v398h135v-398h153v398z" />
    <glyph glyph-name="uni044A" unicode="&#x44a;" horiz-adv-x="673" 
d="M17 397v117h288v-150h126q99 0 152.5 -47.5t53.5 -132.5q0 -86 -53.5 -135t-152.5 -49h-266v397h-148zM305 116h105q48 0 67.5 17.5t19.5 51.5q0 35 -19.5 52t-67.5 17h-105v-138z" />
    <glyph glyph-name="uni044B" unicode="&#x44b;" horiz-adv-x="827" 
d="M74 514h140v-150h116q99 0 152.5 -47.5t53.5 -132.5q0 -86 -53.5 -135t-152.5 -49h-256v514zM214 254v-138h96q48 0 67 17.5t19 51.5q0 35 -19 52t-67 17h-96zM613 514h140v-514h-140v514z" />
    <glyph glyph-name="uni044C" unicode="&#x44c;" horiz-adv-x="582" 
d="M214 514v-150h126q99 0 152.5 -47.5t53.5 -132.5q0 -86 -53.5 -135t-152.5 -49h-266v514h140zM214 116h106q48 0 67 17.5t19 51.5q0 35 -19 52t-67 17h-106v-138z" />
    <glyph glyph-name="uni044D" unicode="&#x44d;" horiz-adv-x="590" 
d="M45 164h131q18 -63 106 -63q53 0 84 28.5t37 77.5h-181v107h179q-7 45 -37 72t-82 27q-80 0 -99 -54h-131q14 77 76 122.5t157 45.5q117 0 188.5 -75t71.5 -195q0 -121 -71.5 -195.5t-189.5 -74.5q-97 0 -162 49t-77 128z" />
    <glyph glyph-name="uni044E" unicode="&#x44e;" horiz-adv-x="871" 
d="M563 527q117 0 190 -76.5t73 -193.5q0 -118 -73 -194t-190 -76q-105 0 -174.5 59.5t-83.5 158.5h-94v-205h-137v514h137v-192h97q18 94 86.5 149.5t168.5 55.5zM562 103q61 0 92.5 43.5t31.5 110.5q0 66 -31.5 109.5t-92.5 43.5q-62 0 -93.5 -43.5t-31.5 -109.5
q0 -67 31.5 -110.5t93.5 -43.5z" />
    <glyph glyph-name="uni044F" unicode="&#x44f;" horiz-adv-x="597" 
d="M263 514h261v-514h-140v172h-128l-66 -172h-138l78 202q-76 43 -76 140q0 81 54.5 126.5t154.5 45.5zM384 275v127h-110q-45 0 -63.5 -16t-18.5 -47q0 -32 18.5 -48t63.5 -16h110z" />
    <glyph glyph-name="uni0451" unicode="&#x451;" horiz-adv-x="597" 
d="M552 283v-42h-368q6 -138 125 -138q76 0 96 54h142q-16 -80 -77 -125t-163 -45q-121 0 -191.5 74t-70.5 198q0 123 70 195.5t189 72.5q114 0 180 -68t68 -176zM303 422q-92 0 -114 -88h220q-14 88 -106 88zM462 591h-117v125h117v-125zM266 591h-118v125h118v-125z" />
    <glyph glyph-name="uni0452" unicode="&#x452;" horiz-adv-x="650" 
d="M591 272v-288q0 -102 -57.5 -143t-157.5 -41h-47v117h46q76 0 76 79v251q0 112 -99 112q-52 0 -83.5 -38t-31.5 -92v-229h-140v559h-73v88h73v80h140v-80h181v-88h-181v-136h26q45 60 140 60q94 0 141 -55t47 -156z" />
    <glyph glyph-name="uni0453" unicode="&#x453;" horiz-adv-x="519" 
d="M425 727l-117 -145h-123l92 145h148zM74 0v514h416v-117h-276v-397h-140z" />
    <glyph glyph-name="uni0454" unicode="&#x454;" horiz-adv-x="589" 
d="M414 164h131q-12 -79 -77 -128t-162 -49q-118 0 -189.5 74.5t-71.5 195.5q0 120 71.5 195t188.5 75q95 0 157 -45.5t76 -122.5h-131q-19 54 -99 54q-52 0 -82 -27t-37 -72h179v-107h-181q6 -49 37 -77.5t84 -28.5q88 0 106 63z" />
    <glyph glyph-name="uni0455" unicode="&#x455;" horiz-adv-x="546" 
d="M492 373h-139q-9 46 -83 46q-75 0 -75 -44q0 -19 12.5 -27.5t42.5 -14.5l93 -14q164 -25 164 -165q0 -69 -60 -118t-168 -49q-114 0 -173.5 46t-68.5 129h139q10 -67 102 -67q89 0 89 56q0 25 -17 37.5t-57 19.5l-100 16q-138 26 -138 142q0 71 55.5 116t163.5 45
q95 0 152.5 -42t65.5 -112z" />
    <glyph glyph-name="uni0456" unicode="&#x456;" horiz-adv-x="290" 
d="M216 602h-142v125h142v-125zM215 514v-514h-140v514h140z" />
    <glyph glyph-name="uni0457" unicode="&#x457;" horiz-adv-x="290" 
d="M303 602h-117v125h117v-125zM107 602h-118v125h118v-125zM215 514v-514h-140v514h140z" />
    <glyph glyph-name="uni0458" unicode="&#x458;" horiz-adv-x="301" 
d="M227 602h-142v125h142v-125zM29 -200h-65v117h46q76 0 76 79v518h140v-530q0 -96 -53.5 -140t-143.5 -44z" />
    <glyph glyph-name="uni0459" unicode="&#x459;" horiz-adv-x="932" 
d="M22 0v134h18q50 0 72 35.5t22 128.5v216h434v-150h122q99 0 152.5 -47.5t53.5 -132.5q0 -86 -53.5 -135t-152.5 -49h-262v397h-165v-104q0 -161 -53 -227t-170 -66h-18zM568 116h101q48 0 67.5 17.5t19.5 51.5q0 37 -21 53t-76 16h-91v-138z" />
    <glyph glyph-name="uni045A" unicode="&#x45a;" horiz-adv-x="923" 
d="M559 514v-150h122q99 0 152.5 -47.5t53.5 -132.5q0 -86 -53.5 -135t-152.5 -49h-262v205h-205v-205h-140v514h140v-192h205v192h140zM559 116h101q48 0 67.5 17.5t19.5 51.5q0 37 -20.5 53t-75.5 16h-92v-138z" />
    <glyph glyph-name="uni045B" unicode="&#x45b;" horiz-adv-x="658" 
d="M591 0h-140v247q0 112 -99 112q-52 0 -83.5 -38t-31.5 -92v-229h-140v559h-73v88h73v80h140v-80h181v-88h-181v-136h26q45 60 140 60q94 0 141 -55t47 -156v-272z" />
    <glyph glyph-name="uni045C" unicode="&#x45c;" horiz-adv-x="607" 
d="M478 727l-117 -145h-123l92 145h148zM430 0l-104 205h-112v-205h-140v514h140v-192h114l98 192h143l-126 -248l134 -266h-147z" />
    <glyph glyph-name="uni045E" unicode="&#x45e;" horiz-adv-x="594" 
d="M267 -200h-140l109 253l-218 461h146l128 -274h26l118 274h141zM370 718h108q-6 -71 -52.5 -110.5t-129.5 -39.5t-129 39.5t-52 110.5h108q3 -27 21 -44t52 -17q67 0 74 61z" />
    <glyph glyph-name="uni045F" unicode="&#x45f;" horiz-adv-x="634" 
d="M420 514h140v-514h-177v-143h-132v143h-177v514h140v-398h206v398z" />
    <glyph glyph-name="uni0490" unicode="&#x490;" horiz-adv-x="638" 
d="M232 581v-581h-149v714h365v150h150v-283h-366z" />
    <glyph glyph-name="uni0491" unicode="&#x491;" horiz-adv-x="507" 
d="M347 649h131v-252h-264v-397h-140v514h273v135z" />
    <glyph glyph-name="uni0492" unicode="&#x492;" horiz-adv-x="669" 
d="M22 297v114h92v303h515v-133h-366v-170h205v-114h-205v-297h-149v297h-92z" />
    <glyph glyph-name="uni0493" unicode="&#x493;" horiz-adv-x="531" 
d="M20 173v100h75v241h407v-117h-267v-124h170v-100h-170v-173h-140v173h-75z" />
    <glyph glyph-name="uni049A" unicode="&#x49a;" horiz-adv-x="769" 
d="M83 0v714h149v-279h169l131 279h154l-160 -347l107 -234h112v-308h-145v175h-59l-139 300h-170v-300h-149z" />
    <glyph glyph-name="uni049B" unicode="&#x49b;" horiz-adv-x="643" 
d="M430 0l-104 205h-112v-205h-140v514h140v-192h114l98 192h143l-126 -248l75 -150h96v-259h-132v143h-52z" />
    <glyph glyph-name="uni04A2" unicode="&#x4a2;" horiz-adv-x="823" 
d="M548 714h149v-581h102v-308h-145v175h-106v299h-316v-299h-149v714h149v-278h316v278z" />
    <glyph glyph-name="uni04A3" unicode="&#x4a3;" horiz-adv-x="688" 
d="M568 514v-398h91v-259h-132v143h-99v205h-214v-205h-140v514h140v-192h214v192h140z" />
    <glyph glyph-name="uni04AE" unicode="&#x4ae;" horiz-adv-x="679" 
d="M325 429h28l153 285h158l-250 -460v-254h-150v254l-249 460h157z" />
    <glyph glyph-name="uni04AF" unicode="&#x4af;" horiz-adv-x="579" 
d="M166 -43l-146 557h143l106 -433h43l102 433h143l-148 -557h-51v-157h-140v157h-52z" />
    <glyph glyph-name="uni04B0" unicode="&#x4b0;" horiz-adv-x="679" 
d="M325 429h28l153 285h158l-207 -380h137v-114h-180v-220h-150v220h-180v114h137l-206 380h157z" />
    <glyph glyph-name="uni04B1" unicode="&#x4b1;" horiz-adv-x="591" 
d="M67 -86v86h87l-134 514h143l106 -433h43l102 433h143l-137 -514h85v-86h-147v-114h-140v114h-151z" />
    <glyph glyph-name="uni04BA" unicode="&#x4ba;" horiz-adv-x="706" 
d="M653 0h-149v204q0 23 -1 35t-9 30.5t-22.5 28t-44 17t-72.5 7.5q-66 0 -123 -16v-306h-149v714h149v-276q73 17 159 17q61 0 106.5 -8.5t73.5 -26t45.5 -36.5t25 -48.5t9.5 -51.5t2 -57v-227z" />
    <glyph glyph-name="uni04BB" unicode="&#x4bb;" horiz-adv-x="635" 
d="M568 0h-140v291q0 112 -100 112q-51 0 -82.5 -38t-31.5 -92v-273h-140v727h140v-260h26q45 60 140 60q94 0 141 -55t47 -156v-316z" />
    <glyph glyph-name="uni04D8" unicode="&#x4d8;" horiz-adv-x="771" 
d="M378 118q85 0 132.5 49.5t53.5 131.5h-364q4 -80 49 -130.5t129 -50.5zM376 727q165 0 255.5 -102.5t90.5 -267.5q0 -164 -89 -267t-251 -103q-158 0 -245.5 104.5t-87.5 290.5q0 15 2 39h513q-10 79 -57 127t-129 48q-113 0 -142 -83h-155q21 98 98 156t197 58z" />
    <glyph glyph-name="uni04D9" unicode="&#x4d9;" horiz-adv-x="597" 
d="M294 -13q-121 0 -185 74.5t-64 196.5q0 22 1 35h365q-6 57 -37 87.5t-85 30.5q-78 0 -97 -54h-142q15 81 78 125.5t162 44.5q120 0 191 -74.5t71 -197.5t-70 -195.5t-188 -72.5zM295 92q109 0 117 108h-229q1 -51 31 -79.5t81 -28.5z" />
    <glyph glyph-name="uni04E8" unicode="&#x4e8;" horiz-adv-x="794" 
d="M397 727q165 0 256.5 -103.5t91.5 -266.5t-91.5 -266.5t-256.5 -103.5t-256.5 103.5t-91.5 266.5t91.5 266.5t256.5 103.5zM397 120q84 0 133.5 49.5t59.5 131.5h-386q9 -82 58.5 -131.5t134.5 -49.5zM397 594q-84 0 -132 -45.5t-60 -125.5h384q-13 79 -61 125t-131 46z
" />
    <glyph glyph-name="uni04E9" unicode="&#x4e9;" horiz-adv-x="622" 
d="M311 527q122 0 194 -74t72 -196t-72 -196t-194 -74q-121 0 -193.5 74.5t-72.5 195.5t72.5 195.5t193.5 74.5zM311 103q52 0 82.5 29t39.5 80h-244q9 -51 39.5 -80t82.5 -29zM311 410q-103 0 -121 -105h242q-18 105 -121 105z" />
    <glyph glyph-name="endash" unicode="&#x2013;" horiz-adv-x="621" 
d="M576 229h-532v108h532v-108z" />
    <glyph glyph-name="emdash" unicode="&#x2014;" horiz-adv-x="879" 
d="M834 229h-790v108h790v-108z" />
    <glyph glyph-name="quoteleft" unicode="&#x2018;" horiz-adv-x="293" 
d="M156 572h68v-152h-154v177l77 117h85l-76 -117v-25z" />
    <glyph glyph-name="quoteright" unicode="&#x2019;" horiz-adv-x="293" 
d="M137 562h-68v152h154v-177l-77 -117h-85l76 117v25z" />
    <glyph glyph-name="quotesinglbase" unicode="&#x201a;" horiz-adv-x="293" 
d="M137 0h-68v152h154v-177l-77 -117h-85l76 117v25z" />
    <glyph glyph-name="quotedblleft" unicode="&#x201c;" horiz-adv-x="515" 
d="M156 572h68v-152h-154v177l77 117h85l-76 -117v-25zM378 572h68v-152h-154v177l77 117h85l-76 -117v-25z" />
    <glyph glyph-name="quotedblright" unicode="&#x201d;" horiz-adv-x="515" 
d="M137 562h-68v152h154v-177l-77 -117h-85l76 117v25zM359 562h-68v152h154v-177l-77 -117h-85l76 117v25z" />
    <glyph glyph-name="quotedblbase" unicode="&#x201e;" horiz-adv-x="515" 
d="M137 0h-68v152h154v-177l-77 -117h-85l76 117v25zM359 0h-68v152h154v-177l-77 -117h-85l76 117v25z" />
    <glyph glyph-name="dagger" unicode="&#x2020;" horiz-adv-x="549" 
d="M212 404h-174v117h174v193h126v-193h174v-117h-174v-556h-126v556z" />
    <glyph glyph-name="daggerdbl" unicode="&#x2021;" horiz-adv-x="549" 
d="M212 404h-174v117h174v193h126v-193h174v-117h-174v-242h174v-117h-174v-197h-126v197h-174v117h174v242z" />
    <glyph glyph-name="bullet" unicode="&#x2022;" horiz-adv-x="416" 
d="M61 356q0 61 43 104t104 43t104 -43t43 -104t-43 -104t-104 -43t-104 43t-43 104z" />
    <glyph glyph-name="ellipsis" unicode="&#x2026;" horiz-adv-x="846" 
d="M223 0h-154v152h154v-152zM499 0h-153v152h153v-152zM776 0h-154v152h154v-152z" />
    <glyph glyph-name="perthousand" unicode="&#x2030;" horiz-adv-x="1262" 
d="M284 0h-102l424 700h101zM208 714q81 0 123.5 -52.5t42.5 -136.5t-42.5 -136.5t-123.5 -52.5q-80 0 -123 52.5t-43 136.5t43 136.5t123 52.5zM208 418q37 0 55.5 29t18.5 78q0 48 -18.5 77.5t-55.5 29.5t-55 -29.5t-18 -77.5q0 -107 73 -107zM681 365q80 0 123 -52.5
t43 -136.5t-43 -136.5t-123 -52.5q-81 0 -124 52.5t-43 136.5t43 136.5t124 52.5zM681 69q37 0 55.5 29t18.5 78q0 48 -18.5 77.5t-55.5 29.5t-55.5 -29.5t-18.5 -77.5q0 -107 74 -107zM1053 365q80 0 123.5 -52.5t43.5 -136.5t-43.5 -136.5t-123.5 -52.5t-123 52.5
t-43 136.5t43 136.5t123 52.5zM1053 69q74 0 74 107q0 48 -18.5 77.5t-55.5 29.5t-55.5 -29.5t-18.5 -77.5q0 -107 74 -107z" />
    <glyph glyph-name="guilsinglleft" unicode="&#x2039;" horiz-adv-x="404" 
d="M181 302v-26l171 -183h-151l-149 155v82l149 154h151z" />
    <glyph glyph-name="guilsinglright" unicode="&#x203a;" horiz-adv-x="404" 
d="M223 276v26l-171 182h151l149 -154v-82l-149 -155h-151z" />
    <glyph glyph-name="fraction" unicode="&#x2044;" horiz-adv-x="245" 
d="M-38 0h-102l424 700h101z" />
    <glyph glyph-name="Euro" unicode="&#x20ac;" horiz-adv-x="702" 
d="M421 319l-23 -69h-142q22 -135 139 -135q104 0 118 107h141q-14 -108 -82.5 -171.5t-177.5 -63.5q-114 0 -186.5 68.5t-94.5 194.5h-90l23 69h60q-3 22 -1 61h-82l23 69h67q21 126 94 195.5t187 69.5q104 0 171.5 -58.5t83.5 -158.5h-143q-17 89 -112 89
q-113 0 -138 -137h210l-24 -69h-194q-3 -42 0 -61h173z" />
    <glyph glyph-name="uni20B4" unicode="&#x20b4;" horiz-adv-x="691" 
d="M32 253v69h627v-69h-411q-6 -16 -6 -40q0 -49 32 -75.5t83 -26.5q98 0 118 81h146q-15 -97 -81 -151t-183 -54q-124 0 -191 63.5t-67 156.5q0 28 6 46h-73zM32 452h410q12 21 12 48q0 43 -27.5 66.5t-71.5 23.5q-89 0 -103 -75h-143q8 90 76.5 144.5t170.5 54.5
q112 0 176 -60t64 -148q0 -30 -9 -54h72v-69h-627v69z" />
    <glyph glyph-name="uni20B8" unicode="&#x20b8;" horiz-adv-x="550" 
d="M16 501v69h518v-69h-187v-501h-144v501h-187zM16 631v69h518v-69h-518z" />
    <glyph glyph-name="uni20BD" unicode="&#x20bd;" horiz-adv-x="707" 
d="M121 700h287q120 0 185.5 -58t65.5 -163q0 -106 -65.5 -165t-185.5 -59h-143v-61h182v-69h-182v-125h-144v125h-92v69h92v61h-92v121h92v324zM265 579v-203h122q129 0 129 103q0 100 -129 100h-122z" />
    <glyph glyph-name="uni2116" unicode="&#x2116;" horiz-adv-x="1159" 
d="M554 700h133v-700h-189l-257 475h-25v-475h-133v700h189l256 -475h26v475zM1110 202h-333v80h333v-80zM942 714q81 0 124 -52.5t43 -136.5t-43 -136.5t-124 -52.5t-123 52.5t-42 136.5t42 136.5t123 52.5zM942 418q74 0 74 107q0 48 -18.5 77.5t-55.5 29.5t-55 -29.5
t-18 -77.5q0 -107 73 -107z" />
    <glyph glyph-name="trademark" unicode="&#x2122;" horiz-adv-x="860" 
d="M539 714l60 -150h15l57 150h131v-379h-80v277h-16l-60 -151h-81l-60 151h-15v-277h-81v379h130zM345 714v-77h-119v-302h-86v302h-118v77h323z" />
    <glyph glyph-name="Omega" unicode="&#x2126;" horiz-adv-x="770" 
d="M606 143v-26h115v-117h-294v122q142 96 142 256q0 101 -50.5 158.5t-132.5 57.5q-83 0 -133.5 -57.5t-50.5 -158.5q0 -161 141 -256v-122h-293v117h115v26q-51 39 -83.5 102.5t-32.5 146.5q0 147 90.5 241t246.5 94q155 0 245 -93.5t90 -241.5q0 -160 -115 -249z" />
    <glyph glyph-name="arrowleft" unicode="&#x2190;" horiz-adv-x="808" 
d="M299 514h166l-173 -171v-26h464v-119h-464v-26l173 -172h-166l-257 258z" />
    <glyph glyph-name="arrowup" unicode="&#x2191;" horiz-adv-x="673" 
d="M594 457v-166l-172 173h-26v-464h-119v464h-26l-172 -173v166l258 257z" />
    <glyph glyph-name="arrowright" unicode="&#x2192;" horiz-adv-x="808" 
d="M343 514h166l257 -256l-257 -258h-166l173 172v26h-464v119h464v26z" />
    <glyph glyph-name="arrowdown" unicode="&#x2193;" horiz-adv-x="673" 
d="M79 257v166l172 -173h26v464h119v-464h26l172 173v-166l-258 -257z" />
    <glyph glyph-name="uni2196" unicode="&#x2196;" horiz-adv-x="705" 
d="M443 714l117 -117h-244l-18 -18l328 -328l-84 -85l-328 329l-19 -19v-244l-116 118v364h364z" />
    <glyph glyph-name="uni2197" unicode="&#x2197;" horiz-adv-x="705" 
d="M145 597l117 117h364v-364l-116 -118v244l-19 19l-328 -329l-84 85l328 328l-18 18h-244z" />
    <glyph glyph-name="uni2198" unicode="&#x2198;" horiz-adv-x="705" 
d="M560 117l-117 -117h-364v364l116 118v-244l19 -19l328 329l84 -85l-328 -328l18 -18h244z" />
    <glyph glyph-name="uni2199" unicode="&#x2199;" horiz-adv-x="705" 
d="M262 0l-117 117h244l18 18l-328 328l84 85l328 -329l19 19v244l116 -118v-364h-364z" />
    <glyph glyph-name="partialdiff" unicode="&#x2202;" horiz-adv-x="616" 
d="M308 103q61 0 91.5 39.5t30.5 103.5q0 63 -30.5 103.5t-91.5 40.5t-92.5 -40.5t-31.5 -103.5t31.5 -103t92.5 -40zM144 727h167q45 -31 85.5 -70.5t82.5 -96.5t67 -133.5t25 -160.5q0 -125 -69.5 -202t-195.5 -77q-120 0 -190.5 73t-70.5 187q0 111 61.5 182t153.5 71
q77 0 110 -33h28q-51 117 -254 260z" />
    <glyph glyph-name="increment" unicode="&#x2206;" horiz-adv-x="653" 
d="M399 700l213 -559v-141h-572v141l213 559h146zM490 115v26l-150 398h-27l-150 -398v-26h327z" />
    <glyph glyph-name="product" unicode="&#x220f;" horiz-adv-x="623" 
d="M502 -200h-119v804h-143v-804h-119v804h-95v110h571v-110h-95v-804z" />
    <glyph glyph-name="summation" unicode="&#x2211;" horiz-adv-x="571" 
d="M204 131h342v-131h-512v156l176 188v26l-169 188v156h487v-131h-319v-25l152 -172v-59l-157 -171v-25z" />
    <glyph glyph-name="minus" unicode="&#x2212;" horiz-adv-x="673" 
d="M594 230h-515v119h515v-119z" />
    <glyph glyph-name="radical" unicode="&#x221a;" horiz-adv-x="667" 
d="M32 514h117l105 -372h26l170 558h191v-104h-106l-187 -596h-164z" />
    <glyph glyph-name="infinity" unicode="&#x221e;" horiz-adv-x="915" 
d="M445 324h25q24 25 32 33t33 30t41.5 30.5t43 17.5t52.5 9q73 0 118.5 -44t45.5 -118t-45.5 -118t-118.5 -44q-42 0 -83 21t-65 43t-54 56h-25q-30 -34 -54 -56t-65 -43t-83 -21q-73 0 -118.5 44t-45.5 118t45.5 118t118.5 44q26 0 52.5 -9t43 -17.5t41.5 -30.5t33 -30
t32 -33zM414 282q-28 34 -47.5 53.5t-53.5 38.5t-67 19q-48 0 -80 -29.5t-32 -81.5t32 -81.5t80 -29.5t88 30.5t80 80.5zM501 282q40 -50 80 -80.5t88 -30.5t80 29.5t32 81.5t-32 81.5t-80 29.5q-33 0 -67 -19t-53.5 -38.5t-47.5 -53.5z" />
    <glyph glyph-name="integral" unicode="&#x222b;" horiz-adv-x="516" 
d="M456 727h49v-117h-41q-49 0 -73 -26t-33 -83l-86 -489q-21 -115 -77.5 -163.5t-158.5 -48.5h-49v117h41q49 0 73 26t33 83l86 489q20 114 77.5 163t158.5 49z" />
    <glyph glyph-name="approxequal" unicode="&#x2248;" horiz-adv-x="671" 
d="M496 485h96q0 -89 -38 -133t-106 -44q-40 0 -82 23t-78.5 45.5t-62.5 22.5q-50 0 -50 -71h-96q0 89 37.5 133t105.5 44q40 0 82.5 -22.5t79 -45.5t62.5 -23q50 0 50 71zM496 261h96q0 -89 -38 -133t-106 -44q-31 0 -64.5 14t-57.5 31.5t-52 31.5t-49 14q-50 0 -50 -71
h-96q0 89 37.5 133t105.5 44q40 0 82.5 -22.5t79 -45.5t62.5 -23q50 0 50 71z" />
    <glyph glyph-name="notequal" unicode="&#x2260;" horiz-adv-x="672" 
d="M593 245v-119h-299l-74 -117h-124l74 117h-91v119h168l56 88h-224v119h300l75 117h122l-74 -117h91v-119h-167l-56 -88h223z" />
    <glyph glyph-name="lessequal" unicode="&#x2264;" horiz-adv-x="673" 
d="M594 151l-515 156v120l515 142v-120l-302 -76v-25l302 -76v-121zM79 0v119h515v-119h-515z" />
    <glyph glyph-name="greaterequal" unicode="&#x2265;" horiz-adv-x="673" 
d="M594 307l-515 -156v121l302 76v25l-302 76v120l515 -142v-120zM594 119v-119h-515v119h515z" />
    <glyph glyph-name="lozenge" unicode="&#x25ca;" horiz-adv-x="574" 
d="M348 714l173 -357l-173 -357h-122l-174 357l174 357h122zM300 160l89 197l-89 197h-26l-89 -197l89 -197h26z" />
    <glyph glyph-name="commaaccent" unicode="&#xf6c3;" horiz-adv-x="225" 
d="M120 -232h-82l69 62v21h-59v95h140v-116z" />
    <glyph glyph-name="uniFEFF" unicode="&#xfeff;" horiz-adv-x="0" 
 />
    <glyph glyph-name="zero.numr" horiz-adv-x="388" 
d="M352 523q0 -98 -43.5 -147.5t-115.5 -49.5t-115 49.5t-43 147.5q0 100 43 149t115 49q73 0 116 -49t43 -149zM193 407q37 0 53 34t16 82q0 117 -69 117q-68 0 -68 -117q0 -116 68 -116z" />
    <glyph glyph-name="one.numr" horiz-adv-x="336" 
d="M216 411h84v-78h-265v78h90v208h-19l-71 -43v85l91 53h90v-303z" />
    <glyph glyph-name="two.numr" horiz-adv-x="370" 
d="M178 411h156v-78h-299v96l111 69q41 25 63.5 46.5t22.5 46.5q0 49 -51 49q-54 0 -55 -51h-91q2 65 41.5 98.5t107.5 33.5q62 0 100.5 -33t38.5 -92q0 -72 -75 -121l-70 -45v-19z" />
    <glyph glyph-name="three.numr" horiz-adv-x="368" 
d="M245 581v-18q37 -6 63 -33t26 -73q0 -60 -42 -95.5t-109 -35.5q-69 0 -110.5 36.5t-43.5 94.5h90q4 -50 64 -50q29 0 45 14t16 38q0 26 -16 39.5t-44 13.5q-22 0 -37 -5v72l59 39v18h-151v78h260v-94z" />
    <glyph glyph-name="four.numr" horiz-adv-x="379" 
d="M298 487h46v-78h-46v-76h-88v76h-181v92l163 213h106v-227zM113 487h100v126h-19l-81 -108v-18z" />
    <glyph glyph-name="five.numr" horiz-adv-x="373" 
d="M212 594q54 0 89.5 -36t35.5 -93q0 -62 -42 -100.5t-106 -38.5q-70 0 -110 36t-44 95h91q6 -52 60 -52q28 0 44 16t16 44q0 29 -16 44t-43 15q-38 0 -60 -28h-82l19 218h248v-78h-180l-4 -61h20q19 19 64 19z" />
    <glyph glyph-name="six.numr" horiz-adv-x="378" 
d="M214 589q52 0 90 -36t38 -90q0 -58 -40.5 -97.5t-105.5 -39.5q-161 0 -161 191q0 92 40.5 148t121.5 56q53 0 91 -31t44 -77h-88q-12 35 -49 35q-65 0 -75 -86h19q27 27 75 27zM193 400q27 0 43 16t16 45q0 28 -16.5 43t-42.5 15q-27 0 -43.5 -15t-16.5 -43
q0 -29 16.5 -45t43.5 -16z" />
    <glyph glyph-name="seven.numr" horiz-adv-x="345" 
d="M35 714h274v-98l-148 -283h-94l146 283v20h-178v78z" />
    <glyph glyph-name="eight.numr" horiz-adv-x="380" 
d="M190 652q-25 0 -39.5 -12.5t-14.5 -31.5q0 -20 14.5 -32.5t39.5 -12.5q24 0 38.5 13t14.5 32q0 18 -15 31t-38 13zM190 399q31 0 47 14.5t16 36.5t-16 36t-47 14t-47.5 -14t-16.5 -36t16.5 -36.5t47.5 -14.5zM91 528v17q-41 24 -41 72q0 44 37.5 74t102.5 30t102 -29.5
t37 -74.5q0 -48 -41 -72v-17q56 -25 56 -88q0 -47 -41.5 -80.5t-113.5 -33.5t-113 33.5t-41 80.5q0 63 56 88z" />
    <glyph glyph-name="nine.numr" horiz-adv-x="378" 
d="M163 458q-52 0 -90 36t-38 90q0 58 40.5 97.5t105.5 39.5q161 0 161 -191q0 -92 -40.5 -148t-121.5 -56q-53 0 -91 31t-44 77h88q12 -35 49 -35q65 0 75 86h-19q-27 -27 -75 -27zM184 647q-27 0 -43 -16t-16 -45q0 -28 16.5 -43t42.5 -15q27 0 43.5 15t16.5 43
q0 29 -16.5 45t-43.5 16z" />
    <glyph glyph-name="zero.dnom" horiz-adv-x="388" 
d="M352 190q0 -98 -43.5 -147.5t-115.5 -49.5t-115 49.5t-43 147.5q0 100 43 149t115 49q73 0 116 -49t43 -149zM193 74q37 0 53 34t16 82q0 117 -69 117q-68 0 -68 -117q0 -116 68 -116z" />
    <glyph glyph-name="one.dnom" horiz-adv-x="336" 
d="M216 78h84v-78h-265v78h90v208h-19l-71 -43v85l91 53h90v-303z" />
    <glyph glyph-name="two.dnom" horiz-adv-x="370" 
d="M178 78h156v-78h-299v96l111 69q41 25 63.5 46.5t22.5 46.5q0 49 -51 49q-54 0 -55 -51h-91q2 65 41.5 98.5t107.5 33.5q62 0 100.5 -33t38.5 -92q0 -72 -75 -121l-70 -45v-19z" />
    <glyph glyph-name="three.dnom" horiz-adv-x="369" 
d="M245 248v-18q37 -6 63 -33t26 -73q0 -60 -42 -95.5t-109 -35.5q-69 0 -110.5 36.5t-43.5 94.5h90q4 -50 64 -50q29 0 45 14t16 38q0 26 -16 39.5t-44 13.5q-22 0 -37 -5v72l59 39v18h-151v78h260v-94z" />
    <glyph glyph-name="four.dnom" horiz-adv-x="379" 
d="M298 154h46v-78h-46v-76h-88v76h-181v92l163 213h106v-227zM113 154h100v126h-19l-81 -108v-18z" />
    <glyph glyph-name="five.dnom" horiz-adv-x="373" 
d="M212 261q54 0 89.5 -36t35.5 -93q0 -62 -42 -100.5t-106 -38.5q-70 0 -110 36t-44 95h91q6 -52 60 -52q28 0 44 16t16 44q0 29 -16 44t-43 15q-38 0 -60 -28h-82l19 218h248v-78h-180l-4 -61h20q19 19 64 19z" />
    <glyph glyph-name="six.dnom" horiz-adv-x="378" 
d="M214 256q52 0 90 -36t38 -90q0 -58 -40.5 -97.5t-105.5 -39.5q-161 0 -161 191q0 92 40.5 148t121.5 56q53 0 91 -31t44 -77h-88q-12 35 -49 35q-65 0 -75 -86h19q27 27 75 27zM193 67q27 0 43 16t16 45q0 28 -16.5 43t-42.5 15q-27 0 -43.5 -15t-16.5 -43
q0 -29 16.5 -45t43.5 -16z" />
    <glyph glyph-name="seven.dnom" horiz-adv-x="345" 
d="M35 381h274v-98l-148 -283h-94l146 283v20h-178v78z" />
    <glyph glyph-name="eight.dnom" horiz-adv-x="380" 
d="M190 319q-25 0 -39.5 -12.5t-14.5 -31.5q0 -20 14.5 -32.5t39.5 -12.5q24 0 38.5 13t14.5 32q0 18 -15 31t-38 13zM190 66q31 0 47 14.5t16 36.5t-16 36t-47 14t-47.5 -14t-16.5 -36t16.5 -36.5t47.5 -14.5zM91 195v17q-41 24 -41 72q0 44 37.5 74t102.5 30t102 -29.5
t37 -74.5q0 -48 -41 -72v-17q56 -25 56 -88q0 -47 -41.5 -80.5t-113.5 -33.5t-113 33.5t-41 80.5q0 63 56 88z" />
    <glyph glyph-name="nine.dnom" horiz-adv-x="378" 
d="M163 125q-52 0 -90 36t-38 90q0 58 40.5 97.5t105.5 39.5q161 0 161 -191q0 -92 -40.5 -148t-121.5 -56q-53 0 -91 31t-44 77h88q12 -35 49 -35q65 0 75 86h-19q-27 -27 -75 -27zM184 314q-27 0 -43 -16t-16 -45q0 -28 16.5 -43t42.5 -15q27 0 43.5 15t16.5 43
q0 29 -16.5 45t-43.5 16z" />
    <glyph glyph-name="zero.onum" horiz-adv-x="625" 
d="M313 527q118 0 194.5 -74.5t76.5 -195.5t-76.5 -195.5t-194.5 -74.5t-194.5 74.5t-76.5 195.5t76.5 195.5t194.5 74.5zM313 110q64 0 97.5 40t33.5 107t-33.5 107t-97.5 40t-97.5 -40t-33.5 -107t33.5 -107t97.5 -40z" />
    <glyph glyph-name="one.onum" horiz-adv-x="512" 
d="M60 0v120h142v256h-27l-115 -74v137l115 75h168v-394h127v-120h-410z" />
    <glyph glyph-name="two.onum" horiz-adv-x="557" 
d="M517 120v-120h-478v138l202 95q65 30 90.5 52t25.5 55q0 30 -22 48t-63 18q-46 0 -69.5 -21t-22.5 -66h-141q-2 90 62 149t174 59q106 0 164 -50.5t58 -123.5q0 -59 -32.5 -97.5t-92.5 -67.5l-88 -43v-25h233z" />
    <glyph glyph-name="three.onum" horiz-adv-x="600" 
d="M69 514h449v-145l-135 -102v-25q75 -6 123.5 -58.5t48.5 -141.5q0 -110 -73.5 -174.5t-191.5 -64.5q-117 0 -190.5 64t-75.5 162h140q6 -47 40.5 -75t85.5 -28q57 0 91 32.5t34 83.5q0 54 -33 85.5t-92 31.5q-31 0 -64 -7v117l134 100v25h-291v120z" />
    <glyph glyph-name="four.onum" horiz-adv-x="634" 
d="M507 120h88v-120h-88v-186h-137v186h-334v146l306 368h165v-394zM171 120h204v244h-26l-178 -218v-26z" />
    <glyph glyph-name="five.onum" horiz-adv-x="624" 
d="M353 292q96 0 159.5 -65.5t63.5 -169.5q0 -113 -73 -183.5t-185 -70.5q-119 0 -189 63t-76 163h140q7 -48 38 -75.5t82 -27.5q56 0 89.5 35t33.5 93q0 60 -34 93.5t-88 33.5q-70 0 -110 -53h-134l31 386h431v-120h-321l-11 -144h26q49 42 127 42z" />
    <glyph glyph-name="six.onum" horiz-adv-x="621" 
d="M358 465q95 0 159.5 -64.5t64.5 -165.5q0 -105 -70 -176.5t-185 -71.5q-128 0 -202.5 83.5t-74.5 266.5q0 172 70 274.5t211 102.5q93 0 158 -53t75 -132h-140q-19 68 -96 68q-62 0 -99.5 -47.5t-42.5 -140.5h26q49 56 146 56zM324 105q53 0 85.5 33t32.5 92t-33 91
t-86 32t-86 -32t-33 -90q0 -59 34 -92.5t86 -33.5z" />
    <glyph glyph-name="seven.onum" horiz-adv-x="573" 
d="M525 366l-280 -552h-147l280 552v26h-329v122h476v-148z" />
    <glyph glyph-name="eight.onum" horiz-adv-x="631" 
d="M480 384v-26q41 -17 72.5 -58t31.5 -103q0 -89 -71 -149.5t-197 -60.5t-197.5 60.5t-71.5 149.5q0 62 31.5 103t72.5 58v26q-32 17 -56.5 53t-24.5 89q0 81 66 134.5t180 53.5q113 0 179 -53.5t66 -134.5q0 -99 -81 -142zM316 604q-48 0 -79 -26.5t-31 -66.5t31 -67
t79 -27q49 0 79.5 26.5t30.5 67.5q0 40 -30.5 66.5t-79.5 26.5zM316 105q61 0 94.5 30t33.5 75q0 44 -34 74.5t-94 30.5q-61 0 -95 -30.5t-34 -74.5q0 -45 34 -75t95 -30z" />
    <glyph glyph-name="nine.onum" horiz-adv-x="621" 
d="M261 49q-95 0 -159 64.5t-64 165.5q0 105 69.5 176.5t184.5 71.5q128 0 202.5 -84t74.5 -266q0 -172 -70 -273t-211 -101q-93 0 -157 53t-76 133h141q16 -69 95 -69q63 0 100.5 46t42.5 139h-26q-49 -56 -147 -56zM296 409q-53 0 -85.5 -33t-32.5 -92t33 -91t86 -32
q52 0 85 32t33 90q0 59 -33.5 92.5t-85.5 33.5z" />
    <glyph glyph-name="zero.tnum" horiz-adv-x="630" 
d="M314 714q124 0 199.5 -90.5t75.5 -273.5q0 -182 -75.5 -272.5t-199.5 -90.5q-123 0 -198 90.5t-75 272.5q0 183 75 273.5t198 90.5zM186 350q0 -91 19 -145l175 360q-26 21 -66 21q-128 0 -128 -236zM315 115q130 0 130 235q0 90 -19 144l-175 -359q26 -20 64 -20z" />
    <glyph glyph-name="one.tnum" horiz-adv-x="630" 
d="M63 0v125h200v431h-25l-130 -86v143l130 87h169v-575h163v-125h-507z" />
    <glyph glyph-name="two.tnum" horiz-adv-x="630" 
d="M198 489h-144q6 109 74 167t182 58q108 0 175.5 -59.5t67.5 -165.5q0 -123 -130 -224l-147 -114v-26h296v-125h-517v150l240 179q52 37 82.5 74.5t30.5 82.5q0 49 -27.5 74.5t-74.5 25.5q-98 0 -108 -97z" />
    <glyph glyph-name="three.tnum" horiz-adv-x="630" 
d="M87 700h450v-147l-134 -99v-27q75 -6 123.5 -58.5t48.5 -142.5q0 -110 -74 -174.5t-193 -64.5q-116 0 -190 64.5t-76 161.5h144q6 -47 38.5 -72.5t83.5 -25.5q57 0 90 30.5t33 81.5q0 53 -32 84t-91 31q-40 0 -64 -7v119l134 99v26h-291v121z" />
    <glyph glyph-name="four.tnum" horiz-adv-x="630" 
d="M510 275h87v-125h-87v-150h-139v150h-333v151l306 399h166v-425zM173 275h203v263h-26l-177 -237v-26z" />
    <glyph glyph-name="five.tnum" horiz-adv-x="630" 
d="M357 477q97 0 160.5 -65.5t63.5 -170.5q0 -113 -73 -183.5t-186 -70.5q-119 0 -189.5 63t-76.5 163h144q12 -98 117 -98q56 0 88 33.5t32 90.5q0 60 -32.5 92.5t-86.5 32.5q-72 0 -111 -52h-134l31 388h432v-121h-320l-11 -143h26q55 41 126 41z" />
    <glyph glyph-name="six.tnum" horiz-adv-x="630" 
d="M359 465q96 0 161 -64.5t65 -165.5q0 -105 -71 -176.5t-186 -71.5q-129 0 -204 83.5t-75 266.5q0 171 71 274t212 103q94 0 159.5 -53t75.5 -132h-143q-19 66 -95 66q-62 0 -99.5 -47t-42.5 -138h26q48 55 146 55zM325 107q52 0 83.5 32t31.5 91q0 58 -31.5 89.5
t-84.5 31.5t-84.5 -31t-31.5 -89q0 -59 32.5 -91.5t84.5 -32.5z" />
    <glyph glyph-name="seven.tnum" horiz-adv-x="630" 
d="M548 550l-280 -550h-150l281 550v25h-329v125h478v-150z" />
    <glyph glyph-name="eight.tnum" horiz-adv-x="630" 
d="M482 384v-26q41 -17 72.5 -58t31.5 -103q0 -89 -71.5 -149.5t-198.5 -60.5t-198.5 60.5t-71.5 149.5q0 62 31.5 103t72.5 58v26q-81 43 -81 142q0 81 67 134.5t180 53.5t180 -53.5t67 -134.5q0 -53 -24.5 -89t-56.5 -53zM316 603q-48 0 -78 -26t-30 -66q0 -41 29.5 -67
t78.5 -26q50 0 79 25.5t29 67.5q0 40 -29.5 66t-78.5 26zM316 107q61 0 94 29.5t33 74.5q0 44 -33.5 74t-93.5 30q-61 0 -94 -29.5t-33 -74.5t33 -74.5t94 -29.5z" />
    <glyph glyph-name="nine.tnum" horiz-adv-x="630" 
d="M272 236q-96 0 -161 64.5t-65 165.5q0 105 71 176.5t186 71.5q129 0 204 -83.5t75 -266.5q0 -171 -71 -274t-212 -103q-94 0 -159.5 53t-75.5 132h143q19 -66 95 -66q62 0 99.5 47t42.5 138h-26q-48 -55 -146 -55zM306 594q-52 0 -83.5 -32t-31.5 -91q0 -58 31.5 -89.5
t84.5 -31.5t84.5 31t31.5 89q0 59 -32.5 91.5t-84.5 32.5z" />
    <glyph glyph-name="dollar.tnum" horiz-adv-x="630" 
d="M284 798h63v-85q92 -11 150.5 -66t69.5 -140h-142q-18 69 -78 81v-169l52 -11q186 -37 186 -201q0 -89 -61 -150.5t-177 -69.5v-85h-63v87q-108 9 -168.5 68.5t-72.5 160.5h142q16 -87 99 -105v192l-51 10q-169 34 -169 189q0 84 58 143t162 67v84zM347 292v-182
q43 4 69.5 27.5t26.5 61.5q0 69 -77 89zM284 431v159q-77 -11 -77 -80q0 -62 77 -79z" />
    <glyph glyph-name="Euro.tnum" horiz-adv-x="630" 
d="M375 319l-23 -69h-128q20 -135 130 -135q47 0 76 30t35 77h141q-16 -109 -81 -172t-171 -63q-111 0 -181.5 68.5t-90.5 194.5h-75l23 69h44q-2 23 0 61h-67l24 69h50q20 124 91.5 194.5t180.5 70.5q103 0 165.5 -58t81.5 -159h-143q-18 89 -103 89q-110 0 -130 -137h196
l-24 -69h-179q-3 -31 0 -61h158z" />
    <glyph glyph-name="sterling.tnum" horiz-adv-x="630" 
d="M238 125h357v-125h-553v125h17q62 0 62 86v62h-78v112h78v99q0 104 58.5 167t166.5 63q105 0 163 -59.5t62 -157.5h-143q-2 45 -21 67t-59 22q-84 0 -84 -96v-105h209v-112h-209v-47q0 -50 -26 -75v-26z" />
    <glyph glyph-name="yen.tnum" horiz-adv-x="630" 
d="M81 317v69h85l-143 314h143l134 -314h28l135 314h144l-144 -314h85v-69h-115l-28 -61h143v-69h-161v-187h-144v187h-162v69h144l-28 61h-116z" />
    <glyph glyph-name="uni20BD.tnum" horiz-adv-x="630" 
d="M107 700h254q119 0 183.5 -58t64.5 -163q0 -106 -64.5 -165t-183.5 -59h-110v-61h175v-69h-175v-125h-144v125h-78v69h78v61h-78v121h78v324zM251 376h88q127 0 127 104q0 50 -29.5 74.5t-97.5 24.5h-88v-203z" />
    <glyph glyph-name="uni20B4.tnum" horiz-adv-x="630" 
d="M32 322h566v-69h-370q-6 -19 -6 -41q0 -49 28 -75t75 -26q84 0 106 81h146q-16 -97 -79.5 -151t-173.5 -54q-119 0 -182 62t-63 155q0 26 6 49h-53v69zM32 452h367q13 22 13 51q0 41 -23 64t-63 23q-41 0 -62.5 -19t-30.5 -56h-142q8 89 73 144t163 55q107 0 167 -59.5
t60 -146.5q0 -27 -9 -56h53v-69h-566v69z" />
    <glyph glyph-name="uni20B8.tnum" horiz-adv-x="630" 
d="M56 501v69h518v-69h-187v-501h-144v501h-187zM56 631v69h518v-69h-518z" />
    <glyph glyph-name="cent.tnum" horiz-adv-x="630" 
d="M425 173h138q-10 -79 -67 -129t-145 -56v-68h-53v69q-105 8 -167 81t-62 187t61.5 186t167.5 82v69h53v-68q87 -6 142.5 -53.5t65.5 -122.5h-139q-15 53 -69 59v-304q63 6 74 68zM209 258q0 -59 22 -101t67 -50v300q-45 -9 -67 -50t-22 -99z" />
    <glyph glyph-name="circumflex.cap" horiz-adv-x="419" 
d="M270 896l109 -129h-111l-47 55h-26l-46 -55h-109l109 129h121z" />
    <glyph glyph-name="dieresis.cap" horiz-adv-x="394" 
d="M354 782h-117v114h117v-114zM158 782h-118v114h118v-114z" />
    <glyph glyph-name="acute.cap" horiz-adv-x="327" 
d="M287 896l-117 -129h-127l91 129h153z" />
    <glyph glyph-name="grave.cap" horiz-adv-x="327" 
d="M159 767l-116 129h152l92 -129h-128z" />
    <glyph glyph-name="ring.cap" horiz-adv-x="316" 
d="M158 968q50 0 84 -33.5t34 -81.5t-34 -81.5t-84 -33.5q-48 0 -83 33.5t-35 81.5t35 81.5t83 33.5zM158 802q21 0 36 15t15 36t-15 36t-36 15q-20 0 -35 -15t-15 -36t15 -36t35 -15z" />
    <glyph glyph-name="caron.cap" horiz-adv-x="419" 
d="M149 767l-109 129h111l46 -55h26l47 55h109l-109 -129h-121z" />
    <glyph glyph-name="dotaccent.cap" horiz-adv-x="222" 
d="M182 782h-142v114h142v-114z" />
    <glyph glyph-name="breve.cap" horiz-adv-x="369" 
d="M246 896h83q-2 -61 -38.5 -95t-106.5 -34q-68 0 -105 34t-39 95h84q2 -55 60 -55q60 0 62 55z" />
    <glyph glyph-name="hungarumlaut.cap" horiz-adv-x="476" 
d="M252 896l-101 -129h-111l77 129h135zM436 896l-102 -129h-110l78 129h134z" />
    <glyph glyph-name="tilde.cap" horiz-adv-x="414" 
d="M310 896h64q0 -61 -26 -95.5t-77 -34.5q-34 0 -75.5 23.5t-61.5 23.5q-17 0 -23.5 -11.5t-7.5 -34.5h-63q0 61 25.5 95.5t76.5 34.5q34 0 76 -23t63 -23q27 0 29 45z" />
    <glyph glyph-name="macron.cap" horiz-adv-x="382" 
d="M342 795h-302v82h302v-82z" />
    <glyph glyph-name="cyrbreve" horiz-adv-x="455" 
d="M301 718h108q-6 -71 -52.5 -110.5t-129.5 -39.5t-129 39.5t-52 110.5h108q3 -27 21 -44t52 -17q67 0 74 61z" />
    <glyph glyph-name="cyrbreve.cap" horiz-adv-x="458" 
d="M308 904h110q-6 -73 -55.5 -113.5t-133.5 -40.5t-133.5 40.5t-55.5 113.5h110q3 -28 23.5 -45t55.5 -17t55 17t24 45z" />
    <glyph glyph-name="hyphen.case" horiz-adv-x="391" 
d="M348 307h-303v121h303v-121z" />
    <glyph glyph-name="endash.case" horiz-adv-x="621" 
d="M576 314h-532v108h532v-108z" />
    <glyph glyph-name="emdash.case" horiz-adv-x="878" 
d="M834 314h-790v108h790v-108z" />
    <glyph glyph-name="emdash.ss02.case" horiz-adv-x="1444" 
d="M1400 314h-1356v108h1356v-108z" />
    <glyph glyph-name="bracketleft.case" horiz-adv-x="381" 
d="M328 -93h-259v900h259v-103h-138v-694h138v-103z" />
    <glyph glyph-name="bracketright.case" horiz-adv-x="381" 
d="M312 -93h-259v103h138v694h-138v103h259v-900z" />
    <glyph glyph-name="braceleft.case" horiz-adv-x="427" 
d="M201 370v-26q67 -21 67 -113v-115q0 -55 21 -80.5t68 -25.5h35v-103h-56q-88 0 -138.5 49.5t-50.5 133.5v118q0 48 -16.5 71.5t-54.5 23.5h-24v108h24q38 0 54.5 23.5t16.5 71.5v118q0 84 50.5 133.5t138.5 49.5h56v-103h-35q-47 0 -68 -25.5t-21 -80.5v-115
q0 -92 -67 -113z" />
    <glyph glyph-name="braceright.case" horiz-adv-x="427" 
d="M226 344v26q-67 21 -67 113v115q0 55 -21 80.5t-68 25.5h-35v103h56q88 0 138.5 -49.5t50.5 -133.5v-118q0 -48 16.5 -71.5t54.5 -23.5h24v-108h-24q-38 0 -54.5 -23.5t-16.5 -71.5v-118q0 -84 -50.5 -133.5t-138.5 -49.5h-56v103h35q47 0 68 25.5t21 80.5v115
q0 92 67 113z" />
    <glyph glyph-name="parenleft.case" horiz-adv-x="325" 
d="M165 359q0 -235 156 -452h-122q-155 186 -155 452q0 258 152 448h122q-153 -215 -153 -448z" />
    <glyph glyph-name="parenright.case" horiz-adv-x="325" 
d="M160 359q0 233 -153 448h122q152 -190 152 -448q0 -266 -155 -452h-122q156 217 156 452z" />
    <glyph glyph-name="guillemotright.case" horiz-adv-x="657" 
d="M476 342v26l-171 182h151l149 -154v-82l-149 -155h-151zM223 342v26l-171 182h151l149 -154v-82l-149 -155h-151z" />
    <glyph glyph-name="guillemotleft.case" horiz-adv-x="657" 
d="M181 368v-26l171 -183h-151l-149 155v82l149 154h151zM434 368v-26l171 -183h-151l-149 155v82l149 154h151z" />
    <glyph glyph-name="guilsinglright.case" horiz-adv-x="404" 
d="M223 342v26l-171 182h151l149 -154v-82l-149 -155h-151z" />
    <glyph glyph-name="guilsinglleft.case" horiz-adv-x="404" 
d="M181 368v-26l171 -183h-151l-149 155v82l149 154h151z" />
    <glyph glyph-name="exclamdown.case" horiz-adv-x="345" 
d="M243 0h-141v290l26 209h89l26 -209v-290zM96 714h153v-152h-153v152z" />
    <glyph glyph-name="questiondown.case" horiz-adv-x="578" 
d="M298 -13q-119 0 -182 58t-63 150q0 67 30 106t91 80q37 26 50.5 43.5t13.5 48.5v26h143v-26q0 -57 -21.5 -91t-76.5 -75q-4 -3 -19.5 -14t-19 -14t-15 -12.5t-14 -15t-8.5 -15t-7.5 -19t-1.5 -21.5q0 -37 25 -61t71 -24q101 0 105 105h143q-2 -100 -65 -164.5t-179 -64.5
zM234 714h153v-152h-153v152z" />
    <glyph glyph-name="a.ss03" 
d="M263 527q99 0 144 -60h26v47h135v-514h-135v47h-26q-46 -60 -144 -60q-100 0 -159 75.5t-59 194.5t59 194.5t159 75.5zM308 103q62 0 93.5 44t31.5 110t-31.5 109.5t-93.5 43.5q-60 0 -91.5 -43t-31.5 -110q0 -68 31.5 -111t91.5 -43z" />
    <glyph glyph-name="aacute.ss03" 
d="M482 727l-117 -145h-123l92 145h148zM263 527q99 0 144 -60h26v47h135v-514h-135v47h-26q-46 -60 -144 -60q-100 0 -159 75.5t-59 194.5t59 194.5t159 75.5zM308 103q62 0 93.5 44t31.5 110t-31.5 109.5t-93.5 43.5q-60 0 -91.5 -43t-31.5 -110q0 -68 31.5 -111t91.5 -43
z" />
    <glyph glyph-name="agrave.ss03" 
d="M280 582l-116 145h147l93 -145h-124zM263 527q99 0 144 -60h26v47h135v-514h-135v47h-26q-46 -60 -144 -60q-100 0 -159 75.5t-59 194.5t59 194.5t159 75.5zM308 103q62 0 93.5 44t31.5 110t-31.5 109.5t-93.5 43.5q-60 0 -91.5 -43t-31.5 -110q0 -68 31.5 -111t91.5 -43
z" />
    <glyph glyph-name="acircumflex.ss03" 
d="M263 527q99 0 144 -60h26v47h135v-514h-135v47h-26q-46 -60 -144 -60q-100 0 -159 75.5t-59 194.5t59 194.5t159 75.5zM308 103q62 0 93.5 44t31.5 110t-31.5 109.5t-93.5 43.5q-60 0 -91.5 -43t-31.5 -110q0 -68 31.5 -111t91.5 -43zM384 727l110 -145h-106l-52 66h-26
l-51 -66h-104l110 145h119z" />
    <glyph glyph-name="adieresis.ss03" 
d="M263 527q99 0 144 -60h26v47h135v-514h-135v47h-26q-46 -60 -144 -60q-100 0 -159 75.5t-59 194.5t59 194.5t159 75.5zM308 103q62 0 93.5 44t31.5 110t-31.5 109.5t-93.5 43.5q-60 0 -91.5 -43t-31.5 -110q0 -68 31.5 -111t91.5 -43zM478 602h-117v125h117v-125z
M282 602h-118v125h118v-125z" />
    <glyph glyph-name="atilde.ss03" 
d="M423 724h63q0 -65 -26 -102.5t-76 -37.5q-34 0 -75.5 28.5t-59.5 28.5q-33 0 -33 -57h-63q0 65 26 102.5t76 37.5q34 0 76 -28.5t60 -28.5q32 0 32 57zM263 527q99 0 144 -60h26v47h135v-514h-135v47h-26q-46 -60 -144 -60q-100 0 -159 75.5t-59 194.5t59 194.5t159 75.5
zM308 103q62 0 93.5 44t31.5 110t-31.5 109.5t-93.5 43.5q-60 0 -91.5 -43t-31.5 -110q0 -68 31.5 -111t91.5 -43z" />
    <glyph glyph-name="aring.ss03" 
d="M319 801q50 0 84 -33.5t34 -81.5t-34 -81.5t-84 -33.5q-48 0 -83 33.5t-35 81.5t35 81.5t83 33.5zM319 636q21 0 36 14.5t15 35.5t-15 36t-36 15q-20 0 -35 -15t-15 -36t15 -35.5t35 -14.5zM263 527q99 0 144 -60h26v47h135v-514h-135v47h-26q-46 -60 -144 -60
q-100 0 -159 75.5t-59 194.5t59 194.5t159 75.5zM308 103q62 0 93.5 44t31.5 110t-31.5 109.5t-93.5 43.5q-60 0 -91.5 -43t-31.5 -110q0 -68 31.5 -111t91.5 -43z" />
    <glyph glyph-name="amacron.ss03" 
d="M263 527q99 0 144 -60h26v47h135v-514h-135v47h-26q-46 -60 -144 -60q-100 0 -159 75.5t-59 194.5t59 194.5t159 75.5zM308 103q62 0 93.5 44t31.5 110t-31.5 109.5t-93.5 43.5q-60 0 -91.5 -43t-31.5 -110q0 -68 31.5 -111t91.5 -43zM479 619h-302v85h302v-85z" />
    <glyph glyph-name="abreve.ss03" 
d="M263 527q99 0 144 -60h26v47h135v-514h-135v47h-26q-46 -60 -144 -60q-100 0 -159 75.5t-59 194.5t59 194.5t159 75.5zM308 103q62 0 93.5 44t31.5 110t-31.5 109.5t-93.5 43.5q-60 0 -91.5 -43t-31.5 -110q0 -68 31.5 -111t91.5 -43zM383 727h83q0 -68 -37 -106.5
t-107 -38.5q-71 0 -108 39t-37 106h84q0 -68 61 -68t61 68z" />
    <glyph glyph-name="aogonek.ss03" 
d="M263 527q99 0 144 -60h26v47h135v-514q-58 -31 -58 -73q0 -45 60 -45v-82h-30q-69 0 -101.5 26t-32.5 70q0 31 19 59.5t56 44.5h-48v47h-26q-46 -60 -144 -60q-100 0 -159 75.5t-59 194.5t59 194.5t159 75.5zM308 103q62 0 93.5 44t31.5 110t-31.5 109.5t-93.5 43.5
q-60 0 -91.5 -43t-31.5 -110q0 -68 31.5 -111t91.5 -43z" />
    <glyph glyph-name="t.ss04" horiz-adv-x="380" 
d="M239 0h-140v397h-75v117h75v144h140v-144h113v-117h-113v-397z" />
    <glyph glyph-name="tcaron.ss04" horiz-adv-x="443" 
d="M394 669h-67v121h147v-146l-76 -82h-80l76 82v25zM239 0h-140v397h-75v117h75v144h140v-144h113v-117h-113v-397z" />
    <glyph glyph-name="uni0163.ss04" horiz-adv-x="380" 
d="M239 0h-140v397h-75v117h75v144h140v-144h113v-117h-113v-397zM171 -232h-82l69 62v21h-59v95h140v-116z" />
    <glyph glyph-name="Y.ss05" horiz-adv-x="682" 
d="M334 394h28l151 320h151l-342 -714h-149l102 214l-264 500h156z" />
    <glyph glyph-name="Yacute.ss05" horiz-adv-x="682" 
d="M334 394h28l151 320h151l-342 -714h-149l102 214l-264 500h156zM506 896l-117 -129h-127l91 129h153z" />
    <glyph glyph-name="Ydieresis.ss05" horiz-adv-x="682" 
d="M334 394h28l151 320h151l-342 -714h-149l102 214l-264 500h156zM499 782h-117v114h117v-114zM303 782h-118v114h118v-114z" />
    <glyph glyph-name="ampersand.ss06" horiz-adv-x="681" 
d="M655 432v-118h-66v-87q0 -105 -75.5 -172.5t-196.5 -67.5q-126 0 -200 59t-74 158q0 65 29.5 104.5t71.5 56.5v26q-74 37 -74 133q0 85 67 137.5t170 52.5q102 0 161.5 -47.5t71.5 -131.5h-141q-17 61 -95 61q-43 0 -69 -22t-26 -58q0 -39 27 -61.5t75 -22.5h46v-118h-46
q-126 0 -126 -102q0 -48 35 -75.5t97 -27.5q63 0 97 30.5t34 87.5v205h207z" />
    <glyph glyph-name="zero.ss07" horiz-adv-x="646" 
d="M322 714q124 0 199.5 -90.5t75.5 -273.5q0 -182 -75.5 -272.5t-199.5 -90.5q-123 0 -198 90.5t-75 272.5q0 183 75 273.5t198 90.5zM194 350q0 -91 19 -145l175 360q-26 21 -66 21q-128 0 -128 -236zM323 115q130 0 130 235q0 90 -19 144l-175 -359q26 -20 64 -20z" />
    <glyph glyph-name="emdash.ss02" horiz-adv-x="1444" 
d="M1400 229h-1356v108h1356v-108z" />
    <glyph glyph-name="uni0430.ss03" 
d="M263 527q99 0 144 -60h26v47h135v-514h-135v47h-26q-46 -60 -144 -60q-100 0 -159 75.5t-59 194.5t59 194.5t159 75.5zM308 103q62 0 93.5 44t31.5 110t-31.5 109.5t-93.5 43.5q-60 0 -91.5 -43t-31.5 -110q0 -68 31.5 -111t91.5 -43z" />
    <glyph glyph-name="uni0423.ss08" horiz-adv-x="684" 
d="M142 0v141h32q36 0 57.5 12t35.5 40l12 25l-262 496h157l165 -317h28l149 317h151l-264 -554q-40 -87 -91 -123.5t-134 -36.5h-36z" />
    <glyph glyph-name="uni040E.ss08" horiz-adv-x="684" 
d="M430 904h110q-6 -73 -55.5 -113.5t-133.5 -40.5t-133.5 40.5t-55.5 113.5h110q3 -28 23.5 -45t55.5 -17t55 17t24 45zM142 0v141h32q36 0 57.5 12t35.5 40l12 25l-262 496h157l165 -317h28l149 317h151l-264 -554q-40 -87 -91 -123.5t-134 -36.5h-36z" />
    <glyph glyph-name="quotedbl.ss01" horiz-adv-x="317" 
d="M80 473v241h34v-241h-34zM203 473v241h34v-241h-34z" />
    <glyph glyph-name="numbersign.ss01" horiz-adv-x="551" 
d="M300 0l32 208h-159l-32 -208h-34l32 208h-104v31h110l34 222h-102v31h107l33 208h34l-34 -208h161l33 208h34l-33 -208h104v-31h-109l-35 -222h103v-31h-108l-32 -208h-35zM213 461l-35 -222h160l35 222h-160z" />
    <glyph glyph-name="quotesingle.ss01" horiz-adv-x="194" 
d="M80 473v241h34v-241h-34z" />
    <glyph glyph-name="parenleft.ss01" horiz-adv-x="238" 
d="M190 759h42q-148 -188 -148 -450t148 -450h-43q-139 189 -139 450q0 260 140 450z" />
    <glyph glyph-name="parenright.ss01" horiz-adv-x="240" 
d="M6 759h42q140 -190 140 -450q0 -261 -139 -450h-43q148 188 148 450t-148 450z" />
    <glyph glyph-name="bracketleft.ss01" horiz-adv-x="258" 
d="M198 -141h-118v900h118v-31h-84v-838h84v-31z" />
    <glyph glyph-name="bracketright.ss01" horiz-adv-x="258" 
d="M178 -141h-118v31h84v838h-84v31h118v-900z" />
    <glyph glyph-name="braceleft.ss01" horiz-adv-x="337" 
d="M137 318v-18q36 -14 36 -91v-215q0 -55 21.5 -79.5t72.5 -24.5h30v-31h-30q-63 0 -95.5 31.5t-32.5 104.5v204q0 51 -8.5 73t-37.5 22h-13v30h13q29 0 37.5 22t8.5 73v204q0 73 32.5 104.5t95.5 31.5h30v-31h-30q-51 0 -72.5 -24.5t-21.5 -79.5v-215q0 -77 -36 -91z" />
    <glyph glyph-name="braceright.ss01" horiz-adv-x="337" 
d="M200 300v18q-36 14 -36 91v215q0 55 -21.5 79.5t-72.5 24.5h-30v31h30q63 0 95.5 -31.5t32.5 -104.5v-204q0 -51 8.5 -73t37.5 -22h13v-30h-13q-29 0 -37.5 -22t-8.5 -73v-204q0 -73 -32.5 -104.5t-95.5 -31.5h-30v31h30q51 0 72.5 24.5t21.5 79.5v215q0 77 36 91z" />
    <glyph glyph-name="asterisk.ss01" horiz-adv-x="452" 
d="M209 714h34l-1 -180l170 60l10 -35l-170 -55l107 -141l-28 -23l-105 147l-105 -147l-28 23l108 142l-171 54l11 35l169 -60z" />
    <glyph glyph-name="plus.ss01" horiz-adv-x="673" 
d="M321 305v241h33v-241h240v-31h-240v-242h-33v242h-242v31h242z" />
    <glyph glyph-name="minus.ss01" horiz-adv-x="673" 
d="M594 274h-515v31h515v-31z" />
    <glyph glyph-name="less.ss01" horiz-adv-x="662" 
d="M583 84v-33l-504 216v44l504 216v-33l-454 -196v-18z" />
    <glyph glyph-name="equal.ss01" horiz-adv-x="672" 
d="M593 208v-31h-514v31h514zM593 400v-31h-514v31h514z" />
    <glyph glyph-name="greater.ss01" horiz-adv-x="662" 
d="M79 51v33l454 196v18l-454 196v33l504 -216v-44z" />
    <glyph glyph-name="hyphen.ss01" horiz-adv-x="397" 
d="M350 266h-303v31h303v-31z" />
    <glyph glyph-name="endash.ss01" horiz-adv-x="621" 
d="M576 266h-532v31h532v-31z" />
    <glyph glyph-name="emdash.ss01" horiz-adv-x="879" 
d="M834 266h-790v31h790v-31z" />
    <glyph glyph-name="emdash.ss01.ss02" horiz-adv-x="1444" 
d="M1400 266h-1356v31h1356v-31z" />
    <glyph glyph-name="underscore.ss01" horiz-adv-x="513" 
d="M514 -124h-515v31h515v-31z" />
    <glyph glyph-name="slash.ss01" horiz-adv-x="365" 
d="M36 -141h-36l302 900h33z" />
    <glyph glyph-name="bar.ss01" horiz-adv-x="214" 
d="M90 -141v900h34v-900h-34z" />
    <glyph glyph-name="backslash.ss01" horiz-adv-x="365" 
d="M365 -141h-36l-299 900h33z" />
    <glyph glyph-name="degree.ss01" horiz-adv-x="461" 
d="M40 523q0 85 54.5 141.5t135.5 56.5t136 -56.5t55 -141.5q0 -84 -55 -140.5t-136 -56.5t-135.5 56t-54.5 141zM74 523q0 -71 44 -118.5t112 -47.5t112.5 47.5t44.5 118.5q0 72 -44 119.5t-113 47.5q-68 0 -112 -47.5t-44 -119.5z" />
    <glyph glyph-name="guillemotleft.ss01" horiz-adv-x="485" 
d="M88 298v-18l179 -187h-42l-173 176v39l170 176h42zM254 298v-18l179 -187h-42l-173 176v39l170 176h42z" />
    <glyph glyph-name="guillemotright.ss01" horiz-adv-x="483" 
d="M395 280v18l-177 186h42l171 -175v-39l-171 -177h-42zM229 280v18l-177 186h42l171 -175v-39l-171 -177h-42z" />
    <glyph glyph-name="guilsinglleft.ss01" horiz-adv-x="319" 
d="M88 298v-18l179 -187h-42l-173 176v39l170 176h42z" />
    <glyph glyph-name="guilsinglright.ss01" horiz-adv-x="319" 
d="M231 280v18l-176 186h42l170 -176v-39l-173 -176h-42z" />
    <glyph glyph-name="quoteleft.ss01" horiz-adv-x="234" 
d="M106 610h33v-102h-64v119l48 87h31l-48 -87v-17z" />
    <glyph glyph-name="quoteright.ss01" horiz-adv-x="234" 
d="M123 612h-33v102h64v-119l-48 -87h-31l48 87v17z" />
    <glyph glyph-name="quotesinglbase.ss01" horiz-adv-x="234" 
d="M123 0h-33v102h64v-119l-48 -87h-31l48 87v17z" />
    <glyph glyph-name="quotedblleft.ss01" horiz-adv-x="371" 
d="M243 610h33v-102h-64v119l48 87h31l-48 -87v-17zM106 610h33v-102h-64v119l48 87h31l-48 -87v-17z" />
    <glyph glyph-name="quotedblright.ss01" horiz-adv-x="371" 
d="M123 612h-33v102h64v-119l-48 -87h-31l48 87v17zM260 612h-33v102h64v-119l-48 -87h-31l48 87v17z" />
    <glyph glyph-name="quotedblbase.ss01" horiz-adv-x="371" 
d="M123 0h-33v102h64v-119l-48 -87h-31l48 87v17zM260 0h-33v102h64v-119l-48 -87h-31l48 87v17z" />
    <glyph glyph-name="arrowleft.ss01" horiz-adv-x="808" 
d="M299 514h46l-220 -220v-20h631v-31h-631v-21l220 -222h-46l-257 258z" />
    <glyph glyph-name="arrowup.ss01" horiz-adv-x="673" 
d="M594 457v-46l-221 222h-19v-633h-34v633h-19l-222 -222v46l258 257z" />
    <glyph glyph-name="arrowright.ss01" horiz-adv-x="808" 
d="M463 514h46l257 -256l-257 -258h-46l220 222v21h-631v31h631v20z" />
    <glyph glyph-name="arrowdown.ss01" horiz-adv-x="673" 
d="M594 303v-46l-257 -257l-258 257v46l222 -222h19v633h34v-633h19z" />
    <glyph glyph-name="uni2196.ss01" horiz-adv-x="675" 
d="M443 714l32 -32h-312l-13 -14l446 -448l-23 -23l-448 447l-13 -14v-313l-33 33v364h364z" />
    <glyph glyph-name="uni2197.ss01" horiz-adv-x="675" 
d="M200 682l32 32h364v-364l-33 -33v313l-13 14l-448 -447l-23 23l446 448l-13 14h-312z" />
    <glyph glyph-name="uni2198.ss01" horiz-adv-x="675" 
d="M475 32l-32 -32h-364v364l33 33v-313l13 -14l448 447l23 -23l-446 -448l13 -14h312z" />
    <glyph glyph-name="uni2199.ss01" horiz-adv-x="675" 
d="M232 0l-32 32h312l13 14l-446 448l23 23l448 -447l13 14v313l33 -33v-364h-364z" />
    <glyph glyph-name="parenleft.ss01.case" horiz-adv-x="238" 
d="M190 807h42q-148 -188 -148 -450t148 -450h-43q-139 189 -139 450q0 260 140 450z" />
    <glyph glyph-name="parenright.ss01.case" horiz-adv-x="238" 
d="M6 807h42q140 -190 140 -450q0 -261 -139 -450h-43q148 188 148 450t-148 450z" />
    <glyph glyph-name="bracketleft.ss01.case" horiz-adv-x="258" 
d="M198 -93h-118v900h118v-31h-84v-838h84v-31z" />
    <glyph glyph-name="bracketright.ss01.case" horiz-adv-x="258" 
d="M178 -93h-118v31h84v838h-84v31h118v-900z" />
    <glyph glyph-name="braceleft.ss01.case" horiz-adv-x="337" 
d="M137 366v-18q36 -14 36 -91v-215q0 -55 21.5 -79.5t72.5 -24.5h30v-31h-30q-63 0 -95.5 31.5t-32.5 104.5v204q0 51 -8.5 73t-37.5 22h-13v30h13q29 0 37.5 22t8.5 73v204q0 73 32.5 104.5t95.5 31.5h30v-31h-30q-51 0 -72.5 -24.5t-21.5 -79.5v-215q0 -77 -36 -91z" />
    <glyph glyph-name="braceright.ss01.case" horiz-adv-x="337" 
d="M200 348v18q-36 14 -36 91v215q0 55 -21.5 79.5t-72.5 24.5h-30v31h30q63 0 95.5 -31.5t32.5 -104.5v-204q0 -51 8.5 -73t37.5 -22h13v-30h-13q-29 0 -37.5 -22t-8.5 -73v-204q0 -73 -32.5 -104.5t-95.5 -31.5h-30v31h30q51 0 72.5 24.5t21.5 79.5v215q0 77 36 91z" />
    <glyph glyph-name="guillemotleft.ss01.case" horiz-adv-x="485" 
d="M88 364v-18l179 -187h-42l-173 176v39l170 176h42zM254 364v-18l179 -187h-42l-173 176v39l170 176h42z" />
    <glyph glyph-name="guillemotright.ss01.case" horiz-adv-x="483" 
d="M395 346v18l-177 186h42l171 -175v-39l-171 -177h-42zM229 346v18l-177 186h42l171 -175v-39l-171 -177h-42z" />
    <glyph glyph-name="guilsinglleft.ss01.case" horiz-adv-x="319" 
d="M88 364v-18l179 -187h-42l-173 176v39l170 176h42z" />
    <glyph glyph-name="guilsinglright.ss01.case" horiz-adv-x="319" 
d="M231 346v18l-176 186h42l170 -176v-39l-173 -176h-42z" />
    <glyph glyph-name="endash.ss01.case" horiz-adv-x="621" 
d="M576 351h-532v31h532v-31z" />
    <glyph glyph-name="hyphen.ss01.case" horiz-adv-x="397" 
d="M350 351h-303v31h303v-31z" />
    <glyph glyph-name="emdash.ss01.case" horiz-adv-x="879" 
d="M834 351h-790v31h790v-31z" />
    <glyph glyph-name="emdash.ss01.ss02.case" horiz-adv-x="1444" 
d="M1400 351h-1356v31h1356v-31z" />
    </font>
</defs>
</svg>
