<?xml version="1.0" standalone="no"?>
<!DOCTYPE svg PUBLIC "-//W3C//DTD SVG 1.1//EN" "http://www.w3.org/Graphics/SVG/1.1/DTD/svg11.dtd" >
<svg xmlns="http://www.w3.org/2000/svg" xmlns:xlink="http://www.w3.org/1999/xlink" version="1.1">
<metadata>
Created by FontForge 20170731 at Thu Apr 17 11:59:06 2014
 By Aleksey,,,
Copyright (c) 2014 by Vyacheslav Kirilenko, Gayane Bagdasaryan. All rights reserved.
</metadata>
<defs>
<font id="Formular-Medium" horiz-adv-x="630" >
  <font-face 
    font-family="Formular"
    font-weight="500"
    font-stretch="normal"
    units-per-em="1000"
    panose-1="2 0 0 0 0 0 0 0 0 0"
    ascent="800"
    descent="-200"
    x-height="509"
    cap-height="714"
    bbox="-140 -226 1398 974"
    underline-thickness="50"
    underline-position="-250"
    unicode-range="U+000D-FEFF"
  />
<missing-glyph horiz-adv-x="522" 
d="M55 0v714h412v-714h-412zM126 65h271v584h-271v-584z" />
    <glyph glyph-name="fi" unicode="fi" horiz-adv-x="645" 
d="M352 413h-133v-413h-113v413h-81v96h81v47q0 171 189 171h57v-96h-56q-40 0 -58.5 -22.5t-18.5 -57.5v-42h133v-96zM567 618h-116v109h116v-109zM565 509v-509h-113v509h113z" />
    <glyph glyph-name="fl" unicode="fl" horiz-adv-x="643" 
d="M352 413h-133v-413h-113v413h-81v96h81v47q0 171 189 171h57v-96h-56q-40 0 -58.5 -22.5t-18.5 -57.5v-42h133v-96zM452 727h113v-727h-113v727z" />
    <glyph glyph-name=".notdef" horiz-adv-x="522" 
d="M55 0v714h412v-714h-412zM126 65h271v584h-271v-584z" />
    <glyph glyph-name=".null" horiz-adv-x="0" 
 />
    <glyph glyph-name="nonmarkingreturn" horiz-adv-x="333" 
 />
    <glyph glyph-name="NULL" horiz-adv-x="0" 
 />
    <glyph glyph-name="NULL" horiz-adv-x="0" 
 />
    <glyph glyph-name="CR" unicode="&#xd;" horiz-adv-x="278" 
 />
    <glyph glyph-name="space" unicode=" " horiz-adv-x="278" 
 />
    <glyph glyph-name="exclam" unicode="!" horiz-adv-x="330" 
d="M107 714h115v-292l-21 -220h-73l-21 220v292zM229 0h-129v134h129v-134z" />
    <glyph glyph-name="quotedbl" unicode="&#x22;" horiz-adv-x="433" 
d="M75 443v271h104v-271h-104zM254 443v271h104v-271h-104z" />
    <glyph glyph-name="numbersign" unicode="#" horiz-adv-x="618" 
d="M67 513h115l30 187h90l-29 -187h124l30 187h90l-30 -187h99v-88h-112l-24 -151h101v-88h-115l-29 -186h-92l30 186h-124l-29 -186h-92l30 186h-98v88h112l25 151h-102v88zM259 425l-24 -151h124l24 151h-124z" />
    <glyph glyph-name="dollar" unicode="$" horiz-adv-x="641" 
d="M350 411l46 -10q88 -16 138.5 -66t50.5 -135q0 -84 -63.5 -145.5t-172.5 -67.5v-85h-62v86q-107 8 -168.5 65.5t-72.5 153.5h115q9 -52 42.5 -81.5t83.5 -35.5v228l-44 10q-173 39 -173 184q0 81 58 138.5t159 63.5v84h63v-86q90 -8 148 -61t68 -135h-114q-9 40 -34.5 65
t-67.5 30v-200zM368 303l-18 4v-219q52 2 86 32t34 75q0 84 -102 108zM185 516q0 -40 23 -60.5t79 -33.5v191q-46 -3 -74 -29.5t-28 -67.5z" />
    <glyph glyph-name="percent" unicode="%" horiz-adv-x="880" 
d="M273 0h-89l424 700h88zM206 714q78 0 121 -53.5t43 -135.5q0 -84 -43 -136.5t-121 -52.5q-79 0 -121 52.5t-42 136.5q0 82 42.5 135.5t120.5 53.5zM206 409q41 0 62 31.5t21 84.5t-21 84.5t-62 31.5q-40 0 -61 -31.5t-21 -84.5t20.5 -84.5t61.5 -31.5zM673 365
q78 0 121 -53.5t43 -135.5q0 -84 -43 -136.5t-121 -52.5t-121 52.5t-43 136.5q0 82 43 135.5t121 53.5zM673 60q41 0 62 31.5t21 84.5q0 52 -21 84t-62 32t-62 -31.5t-21 -84.5t21 -84.5t62 -31.5z" />
    <glyph glyph-name="ampersand" unicode="&#x26;" horiz-adv-x="743" 
d="M538 342h109q-17 -114 -75 -197l142 -145h-139l-60 61h-24q-88 -74 -199 -74q-107 0 -172 53.5t-65 150.5q0 113 123 193v24q-36 43 -51.5 73t-15.5 72q0 71 49 116t129 45q82 0 135.5 -43t53.5 -116q0 -53 -32 -91t-101 -87l152 -157q29 48 41 122zM296 84q82 0 137 60
l-173 179l-29 -19q-64 -43 -64 -110q0 -53 35 -81.5t94 -28.5zM285 441l33 24q56 43 56 87q0 32 -23.5 51.5t-58.5 19.5t-56 -19t-21 -53q0 -43 51 -92z" />
    <glyph glyph-name="quotesingle" unicode="'" horiz-adv-x="254" 
d="M75 443v271h104v-271h-104z" />
    <glyph glyph-name="parenleft" unicode="(" horiz-adv-x="310" 
d="M147 312q0 -242 159 -453h-102q-158 188 -158 453q0 258 153 447h102q-154 -208 -154 -447z" />
    <glyph glyph-name="parenright" unicode=")" horiz-adv-x="310" 
d="M163 312q0 239 -154 447h102q153 -189 153 -447q0 -265 -158 -453h-102q159 211 159 453z" />
    <glyph glyph-name="asterisk" unicode="*" horiz-adv-x="486" 
d="M202 714h82l-6 -164l155 57l26 -79l-158 -46l101 -129l-67 -50l-93 136l-91 -136l-67 50l100 129l-157 46l26 79l154 -57z" />
    <glyph glyph-name="plus" unicode="+" horiz-adv-x="678" 
d="M290 335v207h97v-207h208v-96h-208v-207h-97v207h-207v96h207z" />
    <glyph glyph-name="comma" unicode="," horiz-adv-x="276" 
d="M132 0h-59v134h129v-156l-66 -107h-70l66 107v22z" />
    <glyph glyph-name="hyphen" unicode="-" horiz-adv-x="384" 
d="M336 230h-288v99h288v-99z" />
    <glyph glyph-name="period" unicode="." horiz-adv-x="276" 
d="M202 0h-129v134h129v-134z" />
    <glyph glyph-name="slash" unicode="/" horiz-adv-x="423" 
d="M97 -141h-99l302 900h96z" />
    <glyph glyph-name="zero" unicode="0" horiz-adv-x="636" 
d="M318 714q120 0 193 -91t73 -273t-73 -272.5t-193 -90.5t-193 90.5t-73 272.5t73 273t193 91zM318 91q79 0 114 71t35 188q0 260 -149 260t-149 -260q0 -117 35 -188t114 -71z" />
    <glyph glyph-name="one" unicode="1" horiz-adv-x="518" 
d="M56 0v102h162v479h-24l-139 -94v117l140 96h139v-598h149v-102h-427z" />
    <glyph glyph-name="two" unicode="2" horiz-adv-x="595" 
d="M167 498h-116q6 105 72 160.5t173 55.5q105 0 170 -57.5t65 -161.5q0 -124 -142 -238l-162 -131v-24h324v-102h-499v125l251 198q111 88 111 171q0 56 -32.5 86t-88.5 30q-53 0 -86.5 -28t-39.5 -84z" />
    <glyph glyph-name="three" unicode="3" horiz-adv-x="587" 
d="M76 700h430v-123l-152 -123v-25q82 -4 134.5 -58.5t52.5 -148.5q0 -109 -71.5 -172t-185.5 -63q-111 0 -181.5 62t-74.5 156h117q5 -53 43.5 -83.5t95.5 -30.5q65 0 103 35t38 96t-36.5 96.5t-103.5 35.5q-37 0 -63 -6v106l151 123v24h-297v99z" />
    <glyph glyph-name="four" unicode="4" horiz-adv-x="623" 
d="M490 259h91v-102h-91v-157h-113v157h-340v126l308 417h145v-441zM152 259h228v309h-24l-204 -285v-24z" />
    <glyph glyph-name="five" unicode="5" horiz-adv-x="610" 
d="M335 474q99 0 162 -66t63 -169q0 -113 -69.5 -182.5t-180.5 -69.5q-115 0 -182 60.5t-73 157.5h116q7 -56 42 -85t93 -29q63 0 100 39t37 106q0 66 -37 105t-98 39q-83 0 -125 -59h-112l31 379h417v-99h-325l-13 -171h24q55 44 130 44z" />
    <glyph glyph-name="six" unicode="6" horiz-adv-x="608" 
d="M343 461q96 0 160.5 -64.5t64.5 -165.5q0 -103 -67.5 -173.5t-180.5 -70.5q-124 0 -196 83t-72 264q0 111 28.5 194.5t91.5 134.5t155 51q90 0 150 -49.5t72 -126.5h-115q-24 77 -109 77q-72 0 -114 -55t-47 -160h24q56 61 155 61zM318 87q59 0 96 36.5t37 103.5t-37 102
t-97 35q-59 0 -96.5 -35.5t-37.5 -100.5q0 -66 38 -103.5t97 -37.5z" />
    <glyph glyph-name="seven" unicode="7" horiz-adv-x="561" 
d="M510 576l-291 -576h-122l293 575v24h-342v101h462v-124z" />
    <glyph glyph-name="eight" unicode="8" horiz-adv-x="622" 
d="M466 382v-24q42 -17 74 -58.5t32 -105.5q0 -89 -70.5 -148t-190.5 -59q-121 0 -191.5 59t-70.5 148q0 64 32 105.5t74 58.5v24q-33 16 -58.5 53t-25.5 91q0 83 66 135.5t174 52.5t173.5 -52.5t65.5 -135.5q0 -54 -25.5 -90t-58.5 -54zM311 620q-55 0 -91 -28t-36 -75
t36 -75.5t91 -28.5t90.5 28.5t35.5 75.5t-35.5 75t-90.5 28zM311 87q68 0 107 32.5t39 85.5t-39 85.5t-107 32.5q-70 0 -108 -32.5t-38 -85.5t38 -85.5t108 -32.5z" />
    <glyph glyph-name="nine" unicode="9" horiz-adv-x="608" 
d="M265 240q-96 0 -160.5 64.5t-64.5 165.5q0 103 67.5 173.5t180.5 70.5q124 0 196 -83t72 -264q0 -111 -28.5 -194.5t-91.5 -134.5t-155 -51q-90 0 -150 49.5t-72 126.5h115q24 -77 109 -77q72 0 114 55t47 160h-24q-56 -61 -155 -61zM290 614q-59 0 -96 -36.5t-37 -103.5
t37 -102t97 -35q59 0 96.5 35.5t37.5 100.5q0 66 -38 103.5t-97 37.5z" />
    <glyph glyph-name="colon" unicode=":" horiz-adv-x="276" 
d="M202 0h-129v134h129v-134zM202 375h-129v134h129v-134z" />
    <glyph glyph-name="semicolon" unicode=";" horiz-adv-x="276" 
d="M132 0h-59v134h129v-156l-66 -107h-70l66 107v22zM202 375h-129v134h129v-134z" />
    <glyph glyph-name="less" unicode="&#x3c;" horiz-adv-x="670" 
d="M587 121v-100l-504 224v83l504 224v-100l-351 -154v-24z" />
    <glyph glyph-name="equal" unicode="=" horiz-adv-x="676" 
d="M593 233v-97h-510v97h510zM593 437v-97h-510v97h510z" />
    <glyph glyph-name="greater" unicode="&#x3e;" horiz-adv-x="670" 
d="M83 21v100l350 153v24l-350 154v100l504 -224v-83z" />
    <glyph glyph-name="question" unicode="?" horiz-adv-x="563" 
d="M274 727q109 0 169.5 -55.5t60.5 -145.5q0 -48 -18.5 -85t-39 -56t-64.5 -52q-38 -28 -51 -47t-13 -57v-27h-115v27q0 59 22 93t83 82q42 30 61 55.5t19 66.5q0 42 -30 71.5t-82 29.5q-116 0 -120 -118h-115q2 98 63.5 158t169.5 60zM324 0h-129v134h129v-134z" />
    <glyph glyph-name="at" unicode="@" horiz-adv-x="976" 
d="M688 -62l29 -52q-116 -76 -263 -76q-183 0 -291.5 110.5t-108.5 290.5q0 208 131 345.5t340 137.5q167 0 282.5 -98.5t115.5 -264.5q0 -125 -59 -210.5t-165 -85.5q-93 0 -118 58h-20q-50 -58 -127 -58q-75 0 -118 48t-43 133q0 103 59.5 176t154.5 73q37 0 64 -14
t38 -33h20l8 33h92l-42 -254q-5 -22 -5 -49q0 -51 56 -51q55 0 97 61.5t42 173.5q0 135 -93 219t-248 84q-171 0 -283.5 -117t-112.5 -306q0 -69 20 -129.5t59.5 -109t106.5 -76.5t153 -28q124 0 229 69zM458 113q54 0 88.5 48t34.5 121q0 105 -85 105q-54 0 -87.5 -50.5
t-33.5 -117.5q0 -106 83 -106z" />
    <glyph glyph-name="A" unicode="A" horiz-adv-x="705" 
d="M563 0l-66 205h-293l-65 -205h-120l237 714h192l238 -714h-123zM328 597l-90 -285h224l-91 285h-43z" />
    <glyph glyph-name="B" unicode="B" horiz-adv-x="713" 
d="M567 386v-24q43 -19 69.5 -62t26.5 -96q0 -91 -62.5 -147.5t-181.5 -56.5h-332v714h323q111 0 171.5 -53t60.5 -132q0 -101 -75 -143zM207 421h192q120 0 120 95q0 47 -28 70.5t-92 23.5h-192v-189zM207 104h196q137 0 137 108q0 53 -32 80t-105 27h-196v-215z" />
    <glyph glyph-name="C" unicode="C" horiz-adv-x="728" 
d="M553 216h126q-18 -104 -95 -166.5t-196 -62.5q-158 0 -247 102.5t-89 267.5t89.5 267.5t247.5 102.5q113 0 187.5 -57t94.5 -154h-126q-34 102 -156 102q-105 0 -160 -74t-55 -187t54.5 -187t159.5 -74q66 0 108.5 31.5t56.5 88.5z" />
    <glyph glyph-name="D" unicode="D" horiz-adv-x="752" 
d="M87 714h283q161 0 245.5 -96t84.5 -261t-85 -261t-245 -96h-283v714zM207 109h153q113 0 165.5 68.5t52.5 179.5q0 112 -52.5 180t-165.5 68h-153v-496z" />
    <glyph glyph-name="E" unicode="E" horiz-adv-x="659" 
d="M207 109h406v-109h-526v714h513v-109h-393v-184h311v-107h-311v-205z" />
    <glyph glyph-name="F" unicode="F" horiz-adv-x="642" 
d="M600 605h-393v-196h314v-107h-314v-302h-120v714h513v-109z" />
    <glyph glyph-name="G" unicode="G" horiz-adv-x="753" 
d="M381 388h316v-78q0 -64 -17.5 -120t-52.5 -102.5t-96 -73.5t-141 -27q-160 0 -249 103t-89 267t89.5 267t249.5 103q116 0 190 -55.5t95 -152.5h-125q-30 99 -160 99q-106 0 -161.5 -73t-55.5 -188t55 -188.5t162 -73.5q90 0 136.5 50.5t48.5 140.5h-195v102z" />
    <glyph glyph-name="H" unicode="H" horiz-adv-x="770" 
d="M564 714h120v-714h-120v312h-357v-312h-120v714h120v-290h357v290z" />
    <glyph glyph-name="I" unicode="I" horiz-adv-x="304" 
d="M92 714h120v-714h-120v714z" />
    <glyph glyph-name="J" unicode="J" horiz-adv-x="593" 
d="M274 -13q-105 0 -170 61t-71 173h120q10 -125 122 -125q53 0 83 35t30 103v480h120v-480q0 -117 -62 -182t-172 -65z" />
    <glyph glyph-name="K" unicode="K" horiz-adv-x="736" 
d="M87 0v714h120v-323l329 323h142l-217 -222l246 -492h-127l-198 386h-24l-151 -148v-238h-120z" />
    <glyph glyph-name="L" unicode="L" horiz-adv-x="637" 
d="M207 113h389v-113h-509v714h120v-601z" />
    <glyph glyph-name="M" unicode="M" horiz-adv-x="872" 
d="M87 0v714h190l148 -311h24l146 311h191v-714h-114v571h-24l-151 -313h-122l-150 313h-24v-571h-114z" />
    <glyph glyph-name="N" unicode="N" horiz-adv-x="774" 
d="M574 714h114v-714h-169l-294 540h-24v-540h-114v714h169l294 -540h24v540z" />
    <glyph glyph-name="O" unicode="O" horiz-adv-x="785" 
d="M393 727q161 0 250.5 -104t89.5 -266t-89.5 -266t-250.5 -104t-251 104t-90 266t90 266t251 104zM393 96q108 0 163 74t55 187t-55 187t-163 74t-163.5 -74t-55.5 -187t55.5 -187t163.5 -74z" />
    <glyph glyph-name="P" unicode="P" horiz-adv-x="701" 
d="M87 714h314q119 0 184.5 -58.5t65.5 -161.5q0 -106 -65.5 -164.5t-184.5 -58.5h-194v-271h-120v714zM207 377h176q146 0 146 116q0 57 -34 86t-112 29h-176v-231z" />
    <glyph glyph-name="Q" unicode="Q" horiz-adv-x="785" 
d="M393 727q161 0 250.5 -104t89.5 -266q0 -171 -98 -275l94 -154h-115l-57 96q-70 -37 -164 -37q-161 0 -251 104t-90 266t90 266t251 104zM393 96q62 0 106 25l-120 202h110l81 -133q41 66 41 167q0 113 -55 187t-163 74t-163.5 -74t-55.5 -187t55.5 -187t163.5 -74z" />
    <glyph glyph-name="R" unicode="R" horiz-adv-x="718" 
d="M87 714h326q116 0 179.5 -56.5t63.5 -158.5q0 -133 -107 -187l110 -312h-122l-101 286q-14 -2 -63 -2h-166v-284h-120v714zM207 608v-220h189q138 0 138 110q0 55 -32 82.5t-106 27.5h-189z" />
    <glyph glyph-name="S" unicode="S" horiz-adv-x="677" 
d="M605 526h-122q-22 96 -150 96q-60 0 -98.5 -25t-38.5 -72q0 -40 27.5 -59.5t76.5 -28.5q7 -1 134 -26q187 -41 187 -205q0 -93 -72.5 -156t-206.5 -63q-128 0 -207 61t-89 161h122q21 -117 179 -117q69 0 111 28.5t42 80.5q0 47 -27.5 71t-80.5 35l-139 27
q-178 34 -178 188q0 89 69 147t191 58q113 0 185.5 -54.5t84.5 -146.5z" />
    <glyph glyph-name="T" unicode="T" horiz-adv-x="611" 
d="M594 714v-106h-228v-608h-120v608h-229v106h577z" />
    <glyph glyph-name="U" unicode="U" horiz-adv-x="750" 
d="M545 714h120v-455q0 -130 -75 -201t-215 -71t-215 71t-75 201v455h120v-452q0 -77 44 -121.5t126 -44.5t126 44.5t44 121.5v452z" />
    <glyph glyph-name="V" unicode="V" horiz-adv-x="687" 
d="M238 0l-219 714h125l176 -596h48l176 596h124l-219 -714h-211z" />
    <glyph glyph-name="W" unicode="W" horiz-adv-x="902" 
d="M373 485h156l110 -345h24l69 574h114l-88 -714h-182l-113 371h-24l-114 -371h-182l-87 714h116l68 -574h24z" />
    <glyph glyph-name="X" unicode="X" horiz-adv-x="671" 
d="M516 0l-164 309h-34l-168 -309h-130l205 376l-176 338h126l144 -273h34l147 273h125l-179 -334l205 -380h-135z" />
    <glyph glyph-name="Y" unicode="Y" horiz-adv-x="661" 
d="M316 409h28l171 305h129l-254 -451v-263h-120v263l-254 451h129z" />
    <glyph glyph-name="Z" unicode="Z" horiz-adv-x="656" 
d="M594 714v-134l-397 -446v-25h412v-109h-563v134l398 446v25h-371v109h521z" />
    <glyph glyph-name="bracketleft" unicode="[" horiz-adv-x="353" 
d="M297 -141h-224v900h224v-86h-123v-728h123v-86z" />
    <glyph glyph-name="backslash" unicode="\" horiz-adv-x="423" 
d="M425 -141h-99l-299 900h96z" />
    <glyph glyph-name="bracketright" unicode="]" horiz-adv-x="353" 
d="M280 -141h-224v86h123v728h-123v86h224v-900z" />
    <glyph glyph-name="asciicircum" unicode="^" horiz-adv-x="568" 
d="M145 283h-105l205 410h77l205 -410h-104l-129 259h-21z" />
    <glyph glyph-name="underscore" unicode="_" horiz-adv-x="509" 
d="M510 -144h-511v78h511v-78z" />
    <glyph glyph-name="grave" unicode="`" horiz-adv-x="292" 
d="M152 582l-112 145h123l89 -145h-100z" />
    <glyph glyph-name="a" unicode="a" horiz-adv-x="572" 
d="M396 0v47h-24q-48 -60 -150 -60q-84 0 -133 48.5t-49 118.5q0 69 50 120t152 51h150v15q0 93 -107 93q-95 0 -102 -65h-112q4 71 61.5 112.5t148.5 41.5q103 0 161.5 -46t58.5 -138v-338h-105zM257 79q57 0 96 37t39 90v39h-130q-108 0 -108 -84q0 -39 27 -60.5t76 -21.5
z" />
    <glyph glyph-name="b" unicode="b" horiz-adv-x="629" 
d="M361 522q101 0 160.5 -75t59.5 -192t-59.5 -192.5t-160.5 -75.5q-100 0 -150 62h-24v-49h-109v727h113v-267h24q47 62 146 62zM329 83q67 0 103 47.5t36 124.5t-36 124t-103 47q-70 0 -105.5 -49t-35.5 -122q0 -74 35.5 -123t105.5 -49z" />
    <glyph glyph-name="c" unicode="c" horiz-adv-x="568" 
d="M412 163h112q-12 -80 -72.5 -128t-151.5 -48q-117 0 -184.5 74.5t-67.5 193.5t67.5 193t184.5 74q92 0 150.5 -46t69.5 -122h-112q-25 72 -107 72q-71 0 -105.5 -48t-34.5 -122q0 -76 34.5 -124.5t105.5 -48.5q94 0 111 80z" />
    <glyph glyph-name="d" unicode="d" horiz-adv-x="629" 
d="M268 522q100 0 146 -62h24v267h113v-727h-109v49h-24q-50 -62 -150 -62q-101 0 -160.5 75.5t-59.5 192.5t59.5 192t160.5 75zM300 83q70 0 105.5 49t35.5 123q0 73 -35.5 122t-105.5 49q-67 0 -103 -47t-36 -124t36 -124.5t103 -47.5z" />
    <glyph glyph-name="e" unicode="e" horiz-adv-x="583" 
d="M536 283v-38h-376q5 -162 143 -162q87 0 111 65h115q-15 -74 -73 -117.5t-154 -43.5q-118 0 -186 75t-68 196q0 120 67.5 192t183.5 72q110 0 172.5 -67.5t64.5 -171.5zM298 432q-110 0 -133 -103h255q-6 45 -37 74t-85 29z" />
    <glyph glyph-name="f" unicode="f" horiz-adv-x="384" 
d="M352 413h-133v-413h-113v413h-81v96h81v47q0 171 189 171h57v-96h-56q-40 0 -58.5 -22.5t-18.5 -57.5v-42h133v-96z" />
    <glyph glyph-name="g" unicode="g" horiz-adv-x="629" 
d="M442 509h109v-484q0 -108 -67 -171t-179 -63q-103 0 -166 42.5t-72 121.5h112q15 -71 124 -71q135 0 135 149v34h-24q-43 -62 -142 -62q-102 0 -163 72.5t-61 185.5t61.5 186t162.5 73t146 -62h24v49zM300 101q68 0 105 46.5t37 115.5q0 70 -37 116.5t-105 46.5
q-65 0 -102 -45t-37 -118t37 -117.5t102 -44.5z" />
    <glyph glyph-name="h" unicode="h" horiz-adv-x="620" 
d="M549 0h-113v296q0 125 -113 125q-59 0 -95.5 -43.5t-36.5 -105.5v-272h-113v727h113v-267h24q45 62 145 62q92 0 140.5 -53.5t48.5 -150.5v-318z" />
    <glyph glyph-name="i" unicode="i" horiz-adv-x="272" 
d="M194 618h-116v109h116v-109zM192 509v-509h-113v509h113z" />
    <glyph glyph-name="j" unicode="j" horiz-adv-x="283" 
d="M205 618h-116v109h116v-109zM24 -200h-64v96h46q85 0 85 90v523h113v-530q0 -90 -48 -134.5t-132 -44.5z" />
    <glyph glyph-name="k" unicode="k" horiz-adv-x="576" 
d="M564 0h-120l-131 256h-24l-98 -108v-148h-113v727h113v-443l214 225h129l-147 -158z" />
    <glyph glyph-name="l" unicode="l" horiz-adv-x="269" 
d="M78 727h113v-727h-113v727z" />
    <glyph glyph-name="m" unicode="m" horiz-adv-x="879" 
d="M636 522q87 0 129.5 -52t42.5 -145v-325h-113v306q0 115 -87 115q-52 0 -80 -36t-28 -95v-290h-113v305q0 116 -87 116q-54 0 -81.5 -40.5t-27.5 -103.5v-277h-113v509h109v-46h24q38 59 128 59q91 0 132 -62h24q47 62 141 62z" />
    <glyph glyph-name="n" unicode="n" horiz-adv-x="620" 
d="M549 0h-113v296q0 125 -113 125q-59 0 -95.5 -43.5t-36.5 -105.5v-272h-113v509h109v-49h24q46 62 147 62q94 0 142.5 -53.5t48.5 -150.5v-318z" />
    <glyph glyph-name="o" unicode="o" horiz-adv-x="610" 
d="M305 522q118 0 187.5 -74.5t69.5 -192.5q0 -119 -69.5 -193.5t-187.5 -74.5t-187.5 74.5t-69.5 193.5q0 118 69.5 192.5t187.5 74.5zM305 83q70 0 107 49.5t37 122.5q0 72 -37 121.5t-107 49.5t-107 -49.5t-37 -121.5q0 -73 37 -122.5t107 -49.5z" />
    <glyph glyph-name="p" unicode="p" horiz-adv-x="629" 
d="M329 426q-70 0 -105.5 -49t-35.5 -122q0 -74 35.5 -123t105.5 -49q67 0 103 47.5t36 124.5t-36 124t-103 47zM78 509h109v-49h24q50 62 150 62q101 0 160.5 -75t59.5 -192q0 -118 -59.5 -193t-160.5 -75q-99 0 -146 62h-24v-249h-113v709z" />
    <glyph glyph-name="q" unicode="q" horiz-adv-x="629" 
d="M300 426q-67 0 -103 -47t-36 -124t36 -124.5t103 -47.5q70 0 105.5 49t35.5 123q0 73 -35.5 122t-105.5 49zM442 509h109v-709h-113v249h-24q-46 -62 -146 -62q-101 0 -160.5 75t-59.5 193q0 117 59.5 192t160.5 75q100 0 150 -62h24v49z" />
    <glyph glyph-name="r" unicode="r" horiz-adv-x="424" 
d="M396 509v-105h-46q-78 0 -118.5 -42.5t-40.5 -123.5v-238h-113v509h109v-59h24q44 59 142 59h43z" />
    <glyph glyph-name="s" unicode="s" horiz-adv-x="531" 
d="M476 373h-113q-9 55 -100 55q-92 0 -92 -53q0 -24 15.5 -34.5t49.5 -16.5l99 -16q155 -25 155 -158q0 -68 -57.5 -115.5t-160.5 -47.5q-108 0 -166 44t-67 123h113q13 -73 118 -73q107 0 107 66q0 29 -19 44.5t-64 23.5l-106 18q-130 22 -130 134q0 68 53 111.5t156 43.5
q91 0 146 -40.5t63 -108.5z" />
    <glyph glyph-name="t" unicode="t" horiz-adv-x="395" 
d="M219 509h120v-96h-120v-248q0 -67 78 -67h42v-98h-44q-92 0 -140.5 34t-48.5 116v263h-81v96h81v148h113v-148z" />
    <glyph glyph-name="u" unicode="u" horiz-adv-x="620" 
d="M71 509h113v-296q0 -125 113 -125q59 0 95.5 43.5t36.5 105.5v272h113v-509h-109v49h-24q-46 -62 -147 -62q-94 0 -142.5 53.5t-48.5 150.5v318z" />
    <glyph glyph-name="v" unicode="v" horiz-adv-x="559" 
d="M179 0l-157 509h115l121 -402h46l117 402h115l-158 -509h-199z" />
    <glyph glyph-name="w" unicode="w" horiz-adv-x="723" 
d="M300 356h126l73 -226h24l51 379h107l-72 -509h-154l-81 248h-24l-82 -248h-155l-71 509h108l52 -378h24z" />
    <glyph glyph-name="x" unicode="x" horiz-adv-x="578" 
d="M420 0l-112 200h-37l-115 -200h-121l152 261l-137 248h119l103 -188h37l106 188h116l-138 -245l150 -264h-123z" />
    <glyph glyph-name="y" unicode="y" horiz-adv-x="566" 
d="M244 -200h-115l105 250l-216 459h119l142 -307h26l129 307h116z" />
    <glyph glyph-name="z" unicode="z" horiz-adv-x="535" 
d="M486 0h-437v120l282 269v24h-265v96h414v-119l-281 -270v-24h287v-96z" />
    <glyph glyph-name="braceleft" unicode="{" horiz-adv-x="409" 
d="M188 321v-24q61 -19 61 -109v-141q0 -53 21.5 -77.5t67.5 -24.5h34v-86h-48q-81 0 -128.5 45.5t-47.5 125.5v139q0 48 -15 71.5t-52 23.5h-19v90h19q37 0 52 23.5t15 71.5v139q0 80 47.5 125.5t128.5 45.5h48v-86h-34q-46 0 -67.5 -24.5t-21.5 -77.5v-141q0 -90 -61 -109
z" />
    <glyph glyph-name="bar" unicode="|" horiz-adv-x="261" 
d="M83 -141v900h95v-900h-95z" />
    <glyph glyph-name="braceright" unicode="}" horiz-adv-x="409" 
d="M221 297v24q-61 19 -61 109v141q0 53 -21.5 77.5t-67.5 24.5h-34v86h48q81 0 128.5 -45.5t47.5 -125.5v-139q0 -48 15 -71.5t52 -23.5h19v-90h-19q-37 0 -52 -23.5t-15 -71.5v-139q0 -80 -47.5 -125.5t-128.5 -45.5h-48v86h34q46 0 67.5 24.5t21.5 77.5v141q0 90 61 109z
" />
    <glyph glyph-name="asciitilde" unicode="~" horiz-adv-x="671" 
d="M506 356h82q0 -163 -137 -163q-32 0 -66.5 15.5t-59 34t-54 34t-52.5 15.5q-54 0 -54 -75h-82q0 163 136 163q41 0 84.5 -25t81.5 -49.5t66 -24.5q55 0 55 75z" />
    <glyph glyph-name="uni00A0" unicode="&#xa0;" horiz-adv-x="278" 
 />
    <glyph glyph-name="exclamdown" unicode="&#xa1;" horiz-adv-x="330" 
d="M222 -200h-115v288l21 219h73l21 -219v-288zM229 375h-129v134h129v-134z" />
    <glyph glyph-name="cent" unicode="&#xa2;" horiz-adv-x="568" 
d="M412 163h112q-11 -75 -64.5 -122t-136.5 -53v-68h-54v69q-103 8 -162 81t-59 185q0 110 59 182.5t162 82.5v69h54v-68q82 -5 133.5 -50.5t63.5 -116.5h-112q-20 64 -85 71v-341q71 7 89 79zM161 256q0 -67 26.5 -114t81.5 -56v337q-55 -9 -81.5 -55t-26.5 -112z" />
    <glyph glyph-name="sterling" unicode="&#xa3;" horiz-adv-x="641" 
d="M231 102h375v-102h-553v102h18q70 0 70 89v88h-88v93h88v119q0 103 57.5 163t161.5 60q101 0 157.5 -56t59.5 -153h-116q-5 105 -99 105q-105 0 -105 -119v-119h215v-93h-215v-76q0 -54 -26 -77v-24z" />
    <glyph glyph-name="currency" unicode="&#xa4;" horiz-adv-x="723" 
d="M585 4l-68 67q-68 -52 -155 -52t-156 52l-68 -67l-55 54l67 68q-52 71 -52 157t52 155l-67 68l55 55l68 -67q70 51 156 51t155 -51l68 67l55 -55l-67 -69q51 -69 51 -154q0 -86 -51 -156l67 -69zM362 94q76 0 128 54t52 135q0 79 -52 133t-128 54t-129 -54t-53 -133
q0 -80 53 -134.5t129 -54.5z" />
    <glyph glyph-name="yen" unicode="&#xa5;" horiz-adv-x="634" 
d="M93 310v63h94l-163 327h118l161 -327h28l161 327h119l-163 -327h93v-63h-124l-34 -67h158v-63h-166v-180h-116v180h-166v63h159l-34 67h-125z" />
    <glyph glyph-name="brokenbar" unicode="&#xa6;" horiz-adv-x="261" 
d="M83 411v348h95v-348h-95zM83 -141v348h95v-348h-95z" />
    <glyph glyph-name="section" unicode="&#xa7;" horiz-adv-x="612" 
d="M373 335l-147 44q-26 -10 -45.5 -32t-19.5 -55q0 -34 19 -54.5t60 -32.5l147 -43q24 11 44 33t20 53q0 35 -18.5 55t-59.5 32zM556 265q0 -49 -28 -85t-61 -47v-24q48 -37 48 -111t-59.5 -123t-156.5 -49t-157 52.5t-64 149.5h105q2 -52 32.5 -81t87.5 -29q52 0 79 23.5
t27 58.5q0 60 -70 79l-133 38q-79 24 -114.5 60.5t-35.5 98.5q0 49 28 83.5t62 47.5v24q-48 39 -48 112q0 75 58.5 123t155.5 48q96 0 156 -52t64 -148h-105q-5 108 -120 108q-51 0 -77.5 -23t-26.5 -58q0 -60 70 -79l133 -39q79 -24 114.5 -60.5t35.5 -97.5z" />
    <glyph glyph-name="dieresis" unicode="&#xa8;" horiz-adv-x="370" 
d="M330 618h-100v109h100v-109zM141 618h-101v109h101v-109z" />
    <glyph glyph-name="copyright" unicode="&#xa9;" horiz-adv-x="854" 
d="M525 297h75q-10 -61 -53 -99.5t-111 -38.5q-86 0 -134.5 55t-48.5 142t48.5 142.5t134.5 55.5q66 0 109 -35.5t52 -93.5h-76q-14 62 -85 62q-54 0 -80.5 -35.5t-26.5 -95.5q0 -58 26.5 -93.5t80.5 -35.5q76 0 89 70zM427 727q156 0 262.5 -106.5t106.5 -263.5
t-106.5 -263.5t-262.5 -106.5t-262.5 106.5t-106.5 263.5t107 263.5t262 106.5zM427 46q132 0 219.5 89.5t87.5 221.5q0 133 -87.5 222t-219.5 89t-219 -89t-87 -222t87 -222t219 -89z" />
    <glyph glyph-name="ordfeminine" unicode="&#xaa;" horiz-adv-x="434" 
d="M297 335v35h-13q-39 -44 -112 -44q-64 0 -99.5 36.5t-35.5 88.5q0 51 36 87.5t111 36.5h110v14q0 64 -78 64q-69 0 -75 -49h-81q3 54 45 85.5t108 31.5q75 0 118 -34t43 -101v-251h-77zM193 394q42 0 71.5 26t29.5 65v31h-93q-38 0 -61 -16.5t-23 -43.5q0 -29 21 -45.5
t55 -16.5z" />
    <glyph glyph-name="guillemotleft" unicode="&#xab;" horiz-adv-x="611" 
d="M158 298v-23l167 -178h-123l-147 152v74l147 153h123zM389 298v-23l167 -178h-123l-147 152v74l147 153h123z" />
    <glyph glyph-name="logicalnot" unicode="&#xac;" horiz-adv-x="682" 
d="M504 104v199h-421v96h516v-295h-95z" />
    <glyph glyph-name="uni00AD" unicode="&#xad;" horiz-adv-x="383" 
d="M336 230h-288v99h288v-99z" />
    <glyph glyph-name="registered" unicode="&#xae;" horiz-adv-x="854" 
d="M285 547h177q63 0 97 -30.5t34 -85.5q0 -70 -56 -100l59 -165h-76l-53 149h-108v-149h-74v381zM359 379h92q67 0 67 51t-67 51h-92v-102zM427 727q156 0 262.5 -106.5t106.5 -263.5t-106.5 -263.5t-262.5 -106.5t-262.5 106.5t-106.5 263.5t107 263.5t262 106.5zM427 46
q132 0 219.5 89.5t87.5 221.5q0 133 -87.5 222t-219.5 89t-219 -89t-87 -222t87 -222t219 -89z" />
    <glyph glyph-name="overscore" unicode="&#xaf;" horiz-adv-x="372" 
d="M332 629h-292v75h292v-75z" />
    <glyph glyph-name="degree" unicode="&#xb0;" horiz-adv-x="468" 
d="M430 523q0 -85 -56.5 -141.5t-140.5 -56.5t-140 56.5t-56 141.5t56 141.5t140 56.5t140.5 -56.5t56.5 -141.5zM233 399q51 0 84.5 35.5t33.5 88.5t-33.5 89t-84.5 36t-84.5 -36t-33.5 -89t33.5 -88.5t84.5 -35.5z" />
    <glyph glyph-name="plusminus" unicode="&#xb1;" horiz-adv-x="678" 
d="M83 0v96h512v-96h-512zM290 400v157h97v-157h208v-96h-208v-157h-97v157h-206v96h206z" />
    <glyph glyph-name="twosuperior" unicode="&#xb2;" horiz-adv-x="366" 
d="M159 401h170v-68h-292v84l115 77q40 26 63 50t23 52q0 27 -16 41t-43 14q-63 0 -64 -60h-78q2 64 41 97t103 33q62 0 99 -31.5t37 -90.5q0 -69 -76 -124l-82 -57v-17z" />
    <glyph glyph-name="threesuperior" unicode="&#xb3;" horiz-adv-x="369" 
d="M237 583v-16q40 -6 67 -34.5t27 -76.5q0 -59 -41.5 -94.5t-106.5 -35.5q-66 0 -107 36t-43 93h77q3 -28 23 -43.5t50 -15.5q33 0 51.5 16t18.5 45t-18.5 45.5t-50.5 16.5q-25 0 -37 -4v65l68 49v17h-155v68h254v-80z" />
    <glyph glyph-name="acute" unicode="&#xb4;" horiz-adv-x="292" 
d="M252 727l-113 -145h-99l89 145h123z" />
    <glyph glyph-name="mu" unicode="&#xb5;" horiz-adv-x="627" 
d="M78 509h113v-296q0 -125 113 -125q59 0 95.5 43.5t36.5 105.5v272h113v-509h-109v49h-24q-46 -62 -147 -62q-41 0 -78 13v-200h-113v709z" />
    <glyph glyph-name="paragraph" unicode="&#xb6;" horiz-adv-x="684" 
d="M354 -177h-98v491q-97 0 -158.5 50t-61.5 150q0 101 58.5 150.5t161.5 49.5h382v-82h-80v-809h-98v809h-106v-809z" />
    <glyph glyph-name="middot" unicode="&#xb7;" horiz-adv-x="276" 
d="M202 264h-129v134h129v-134z" />
    <glyph glyph-name="cedilla" unicode="&#xb8;" horiz-adv-x="280" 
d="M103 24h48l-31 -82h13q12 9 36 9q31 0 51.5 -22.5t20.5 -59.5t-26 -63.5t-78 -26.5q-45 0 -70 21.5t-27 53.5h63q7 -24 36 -24q16 0 26 9.5t10 26.5t-10 26.5t-26 9.5q-19 0 -31 -12h-57z" />
    <glyph glyph-name="onesuperior" unicode="&#xb9;" horiz-adv-x="333" 
d="M208 401h88v-68h-259v68h92v227h-18l-74 -44v75l93 55h78v-313z" />
    <glyph glyph-name="ordmasculine" unicode="&#xba;" horiz-adv-x="450" 
d="M225 721q86 0 137 -55.5t51 -141.5t-51 -142t-137 -56t-137 56t-51 142t51 141.5t137 55.5zM225 398q52 0 80 36.5t28 89.5q0 52 -28 88.5t-80 36.5t-80 -36.5t-28 -88.5q0 -53 28 -89.5t80 -36.5z" />
    <glyph glyph-name="guillemotright" unicode="&#xbb;" horiz-adv-x="611" 
d="M453 275v23l-167 178h123l147 -153v-74l-147 -152h-123zM222 275v23l-167 178h123l147 -153v-74l-147 -152h-123z" />
    <glyph glyph-name="onequarter" unicode="&#xbc;" horiz-adv-x="870" 
d="M275 0h-89l424 700h88zM208 401h88v-68h-259v68h92v227h-18l-74 -44v75l93 55h78v-313zM784 149h49v-68h-49v-81h-77v81h-186v78l167 222h96v-232zM600 149h109v142h-17l-92 -125v-17z" />
    <glyph glyph-name="onehalf" unicode="&#xbd;" horiz-adv-x="886" 
d="M275 0h-89l424 700h88zM208 401h88v-68h-259v68h92v227h-18l-74 -44v75l93 55h78v-313zM679 68h170v-68h-292v84l115 77q40 26 63 50t23 52q0 27 -16 41t-43 14q-63 0 -64 -60h-78q2 64 41 97t103 33q62 0 99 -31.5t37 -90.5q0 -69 -76 -124l-82 -57v-17z" />
    <glyph glyph-name="threequarters" unicode="&#xbe;" horiz-adv-x="875" 
d="M279 0h-89l424 700h88zM789 149h49v-68h-49v-81h-77v81h-186v78l167 222h96v-232zM605 149h109v142h-17l-92 -125v-17zM237 583v-16q40 -6 67 -34.5t27 -76.5q0 -59 -41.5 -94.5t-106.5 -35.5q-66 0 -107 36t-43 93h77q3 -28 23 -43.5t50 -15.5q33 0 51.5 16t18.5 45
t-18.5 45.5t-50.5 16.5q-25 0 -37 -4v65l68 49v17h-155v68h254v-80z" />
    <glyph glyph-name="questiondown" unicode="&#xbf;" horiz-adv-x="559" 
d="M282 -209q-109 0 -170 55.5t-61 145.5q0 36 8.5 64t28 51.5t36.5 38.5t49 38q38 28 51.5 47t13.5 55v21h115v-21q0 -57 -20.5 -88.5t-74.5 -74.5q-5 -4 -19.5 -15.5t-18.5 -15t-15 -13t-14 -14.5t-9.5 -14t-8.5 -17t-4 -19t-2 -23q0 -42 30 -72t82 -30q115 0 121 119h114
q-2 -98 -63 -158t-169 -60zM231 509h129v-134h-129v134z" />
    <glyph glyph-name="Agrave" unicode="&#xc0;" horiz-adv-x="705" 
d="M563 0l-66 205h-293l-65 -205h-120l237 714h192l238 -714h-123zM328 597l-90 -285h224l-91 285h-43zM301 767l-112 129h126l89 -129h-103z" />
    <glyph glyph-name="Aacute" unicode="&#xc1;" horiz-adv-x="705" 
d="M563 0l-66 205h-293l-65 -205h-120l237 714h192l238 -714h-123zM328 597l-90 -285h224l-91 285h-43zM513 896l-113 -129h-102l88 129h127z" />
    <glyph glyph-name="Acircumflex" unicode="&#xc2;" horiz-adv-x="705" 
d="M563 0l-66 205h-293l-65 -205h-120l237 714h192l238 -714h-123zM328 597l-90 -285h224l-91 285h-43zM404 896l108 -129h-95l-54 62h-24l-53 -62h-93l108 129h103z" />
    <glyph glyph-name="Atilde" unicode="&#xc3;" horiz-adv-x="705" 
d="M563 0l-66 205h-293l-65 -205h-120l237 714h192l238 -714h-123zM328 597l-90 -285h224l-91 285h-43zM456 896h60q0 -129 -99 -129q-35 0 -78 29.5t-60 29.5q-35 0 -35 -59h-59q0 129 98 129q35 0 78 -29t61 -29q34 0 34 58z" />
    <glyph glyph-name="Adieresis" unicode="&#xc4;" horiz-adv-x="705" 
d="M563 0l-66 205h-293l-65 -205h-120l237 714h192l238 -714h-123zM328 597l-90 -285h224l-91 285h-43zM499 794h-100v102h100v-102zM310 794h-101v102h101v-102z" />
    <glyph glyph-name="Aring" unicode="&#xc5;" horiz-adv-x="705" 
d="M352 886q47 0 80 -33t33 -79q0 -34 -17 -60l238 -714h-123l-66 205h-293l-65 -205h-120l237 714q-18 26 -18 60q0 46 33.5 79t80.5 33zM328 597l-90 -285h224l-91 285h-43zM352 720q23 0 38.5 15.5t15.5 38.5t-15.5 38.5t-38.5 15.5t-38.5 -15.5t-15.5 -38.5t15.5 -38.5
t38.5 -15.5z" />
    <glyph glyph-name="AE" unicode="&#xc6;" horiz-adv-x="1028" 
d="M507 0v206h-261l-107 -206h-132l380 714h582v-109h-342v-184h260v-107h-260v-205h355v-109h-475zM455 605l-153 -293h205v293h-52z" />
    <glyph glyph-name="Ccedilla" unicode="&#xc7;" horiz-adv-x="728" 
d="M553 216h126q-18 -104 -95 -166.5t-196 -62.5l-17 -45h13q12 9 36 9q31 0 51.5 -22.5t20.5 -59.5t-26 -63.5t-78 -26.5q-45 0 -70 21.5t-27 53.5h63q7 -24 36 -24q16 0 26 9.5t10 26.5t-10 26.5t-26 9.5q-19 0 -31 -12h-57l38 100q-136 14 -212 114.5t-76 252.5
q0 165 89.5 267.5t247.5 102.5q113 0 187.5 -57t94.5 -154h-126q-34 102 -156 102q-105 0 -160 -74t-55 -187t54.5 -187t159.5 -74q66 0 108.5 31.5t56.5 88.5z" />
    <glyph glyph-name="Egrave" unicode="&#xc8;" horiz-adv-x="659" 
d="M207 109h406v-109h-526v714h513v-109h-393v-184h311v-107h-311v-205zM315 767l-112 129h126l89 -129h-103z" />
    <glyph glyph-name="Eacute" unicode="&#xc9;" horiz-adv-x="659" 
d="M207 109h406v-109h-526v714h513v-109h-393v-184h311v-107h-311v-205zM470 896l-113 -129h-102l88 129h127z" />
    <glyph glyph-name="Ecircumflex" unicode="&#xca;" horiz-adv-x="659" 
d="M207 109h406v-109h-526v714h513v-109h-393v-184h311v-107h-311v-205zM396 896l108 -129h-95l-54 62h-24l-53 -62h-93l108 129h103z" />
    <glyph glyph-name="Edieresis" unicode="&#xcb;" horiz-adv-x="659" 
d="M207 109h406v-109h-526v714h513v-109h-393v-184h311v-107h-311v-205zM486 794h-100v102h100v-102zM297 794h-101v102h101v-102z" />
    <glyph glyph-name="Igrave" unicode="&#xcc;" horiz-adv-x="305" 
d="M92 714h120v-714h-120v714zM104 767l-112 129h126l89 -129h-103z" />
    <glyph glyph-name="Iacute" unicode="&#xcd;" horiz-adv-x="305" 
d="M92 714h120v-714h-120v714zM317 896l-113 -129h-102l88 129h127z" />
    <glyph glyph-name="Icircumflex" unicode="&#xce;" horiz-adv-x="305" 
d="M92 714h120v-714h-120v714zM206 896l108 -129h-95l-54 62h-24l-53 -62h-93l108 129h103z" />
    <glyph glyph-name="Idieresis" unicode="&#xcf;" horiz-adv-x="305" 
d="M92 714h120v-714h-120v714zM299 794h-100v102h100v-102zM110 794h-101v102h101v-102z" />
    <glyph glyph-name="Eth" unicode="&#xd0;" horiz-adv-x="765" 
d="M20 318v94h80v302h283q161 0 245.5 -96t84.5 -261t-85 -261t-245 -96h-283v318h-80zM220 109h153q113 0 165.5 68.5t52.5 179.5q0 112 -52.5 180t-165.5 68h-153v-193h205v-94h-205v-209z" />
    <glyph glyph-name="Ntilde" unicode="&#xd1;" horiz-adv-x="774" 
d="M574 714h114v-714h-169l-294 540h-24v-540h-114v714h169l294 -540h24v540zM493 896h60q0 -129 -99 -129q-35 0 -78 29.5t-60 29.5q-35 0 -35 -59h-59q0 129 98 129q35 0 78 -29t61 -29q34 0 34 58z" />
    <glyph glyph-name="Ograve" unicode="&#xd2;" horiz-adv-x="785" 
d="M393 727q161 0 250.5 -104t89.5 -266t-89.5 -266t-250.5 -104t-251 104t-90 266t90 266t251 104zM393 96q108 0 163 74t55 187t-55 187t-163 74t-163.5 -74t-55.5 -187t55.5 -187t163.5 -74zM349 767l-112 129h126l89 -129h-103z" />
    <glyph glyph-name="Oacute" unicode="&#xd3;" horiz-adv-x="785" 
d="M393 727q161 0 250.5 -104t89.5 -266t-89.5 -266t-250.5 -104t-251 104t-90 266t90 266t251 104zM393 96q108 0 163 74t55 187t-55 187t-163 74t-163.5 -74t-55.5 -187t55.5 -187t163.5 -74zM554 896l-113 -129h-102l88 129h127z" />
    <glyph glyph-name="Ocircumflex" unicode="&#xd4;" horiz-adv-x="785" 
d="M393 727q161 0 250.5 -104t89.5 -266t-89.5 -266t-250.5 -104t-251 104t-90 266t90 266t251 104zM393 96q108 0 163 74t55 187t-55 187t-163 74t-163.5 -74t-55.5 -187t55.5 -187t163.5 -74zM445 896l108 -129h-95l-54 62h-24l-53 -62h-93l108 129h103z" />
    <glyph glyph-name="Otilde" unicode="&#xd5;" horiz-adv-x="785" 
d="M393 727q161 0 250.5 -104t89.5 -266t-89.5 -266t-250.5 -104t-251 104t-90 266t90 266t251 104zM393 96q108 0 163 74t55 187t-55 187t-163 74t-163.5 -74t-55.5 -187t55.5 -187t163.5 -74zM499 896h60q0 -129 -99 -129q-35 0 -78 29.5t-60 29.5q-35 0 -35 -59h-59
q0 129 98 129q35 0 78 -29t61 -29q34 0 34 58z" />
    <glyph glyph-name="Odieresis" unicode="&#xd6;" horiz-adv-x="785" 
d="M393 727q161 0 250.5 -104t89.5 -266t-89.5 -266t-250.5 -104t-251 104t-90 266t90 266t251 104zM393 96q108 0 163 74t55 187t-55 187t-163 74t-163.5 -74t-55.5 -187t55.5 -187t163.5 -74zM538 794h-100v102h100v-102zM349 794h-101v102h101v-102z" />
    <glyph glyph-name="multiply" unicode="&#xd7;" horiz-adv-x="650" 
d="M257 287l-174 176l67 67l175 -175l175 174l67 -66l-174 -176l174 -176l-67 -67l-175 175l-174 -173l-67 66z" />
    <glyph glyph-name="Oslash" unicode="&#xd8;" horiz-adv-x="785" 
d="M393 727q119 0 203 -62l40 49h97l-82 -100q82 -100 82 -257q0 -162 -89.5 -266t-250.5 -104q-119 0 -205 61l-39 -48h-97l82 100q-82 100 -82 257q0 162 90 266t251 104zM393 96q108 0 163 74t55 187q0 93 -38 161l-312 -380q54 -42 132 -42zM174 357q0 -99 38 -162
l311 381q-51 42 -130 42q-108 0 -163.5 -74t-55.5 -187z" />
    <glyph glyph-name="Ugrave" unicode="&#xd9;" horiz-adv-x="750" 
d="M545 714h120v-455q0 -130 -75 -201t-215 -71t-215 71t-75 201v455h120v-452q0 -77 44 -121.5t126 -44.5t126 44.5t44 121.5v452zM339 767l-112 129h126l89 -129h-103z" />
    <glyph glyph-name="Uacute" unicode="&#xda;" horiz-adv-x="750" 
d="M545 714h120v-455q0 -130 -75 -201t-215 -71t-215 71t-75 201v455h120v-452q0 -77 44 -121.5t126 -44.5t126 44.5t44 121.5v452zM522 896l-113 -129h-102l88 129h127z" />
    <glyph glyph-name="Ucircumflex" unicode="&#xdb;" horiz-adv-x="750" 
d="M545 714h120v-455q0 -130 -75 -201t-215 -71t-215 71t-75 201v455h120v-452q0 -77 44 -121.5t126 -44.5t126 44.5t44 121.5v452zM427 896l108 -129h-95l-54 62h-24l-53 -62h-93l108 129h103z" />
    <glyph glyph-name="Udieresis" unicode="&#xdc;" horiz-adv-x="750" 
d="M545 714h120v-455q0 -130 -75 -201t-215 -71t-215 71t-75 201v455h120v-452q0 -77 44 -121.5t126 -44.5t126 44.5t44 121.5v452zM520 794h-100v102h100v-102zM331 794h-101v102h101v-102z" />
    <glyph glyph-name="Yacute" unicode="&#xdd;" horiz-adv-x="661" 
d="M316 409h28l171 305h129l-254 -451v-263h-120v263l-254 451h129zM486 896l-113 -129h-102l88 129h127z" />
    <glyph glyph-name="Thorn" unicode="&#xde;" horiz-adv-x="665" 
d="M207 570h168q114 0 177 -56.5t63 -156.5t-63 -156.5t-177 -56.5h-168v-144h-120v714h120v-144zM207 250h150q72 0 104 27.5t32 80.5t-31.5 79.5t-104.5 26.5h-150v-214z" />
    <glyph glyph-name="germandbls" unicode="&#xdf;" horiz-adv-x="631" 
d="M467 405v-24q55 -13 89 -59.5t34 -112.5q0 -100 -61 -154.5t-166 -54.5h-65v96h46q133 0 133 118q0 60 -37.5 92.5t-110.5 32.5h-14v96h14q56 0 83 27.5t27 70.5q0 47 -28.5 73.5t-77.5 26.5q-113 0 -113 -135v-498h-113v413h-90v96h91q0 103 60 161.5t168 58.5
q96 0 155 -52t59 -134q0 -51 -22 -87.5t-61 -50.5z" />
    <glyph glyph-name="agrave" unicode="&#xe0;" horiz-adv-x="572" 
d="M396 0v47h-24q-48 -60 -150 -60q-84 0 -133 48.5t-49 118.5q0 69 50 120t152 51h150v15q0 93 -107 93q-95 0 -102 -65h-112q4 71 61.5 112.5t148.5 41.5q103 0 161.5 -46t58.5 -138v-338h-105zM257 79q57 0 96 37t39 90v39h-130q-108 0 -108 -84q0 -39 27 -60.5t76 -21.5
zM256 582l-112 145h123l89 -145h-100z" />
    <glyph glyph-name="aacute" unicode="&#xe1;" horiz-adv-x="572" 
d="M396 0v47h-24q-48 -60 -150 -60q-84 0 -133 48.5t-49 118.5q0 69 50 120t152 51h150v15q0 93 -107 93q-95 0 -102 -65h-112q4 71 61.5 112.5t148.5 41.5q103 0 161.5 -46t58.5 -138v-338h-105zM257 79q57 0 96 37t39 90v39h-130q-108 0 -108 -84q0 -39 27 -60.5t76 -21.5
zM430 727l-113 -145h-99l89 145h123z" />
    <glyph glyph-name="acircumflex" unicode="&#xe2;" horiz-adv-x="572" 
d="M396 0v47h-24q-48 -60 -150 -60q-84 0 -133 48.5t-49 118.5q0 69 50 120t152 51h150v15q0 93 -107 93q-95 0 -102 -65h-112q4 71 61.5 112.5t148.5 41.5q103 0 161.5 -46t58.5 -138v-338h-105zM257 79q57 0 96 37t39 90v39h-130q-108 0 -108 -84q0 -39 27 -60.5t76 -21.5
zM342 727l108 -145h-91l-58 75h-24l-57 -75h-89l109 145h102z" />
    <glyph glyph-name="atilde" unicode="&#xe3;" horiz-adv-x="572" 
d="M396 0v47h-24q-48 -60 -150 -60q-84 0 -133 48.5t-49 118.5q0 69 50 120t152 51h150v15q0 93 -107 93q-95 0 -102 -65h-112q4 71 61.5 112.5t148.5 41.5q103 0 161.5 -46t58.5 -138v-338h-105zM257 79q57 0 96 37t39 90v39h-130q-108 0 -108 -84q0 -39 27 -60.5t76 -21.5
zM394 722h59q0 -136 -98 -136q-35 0 -78 32t-61 32q-34 0 -34 -64h-59q0 136 98 136q35 0 78.5 -32t61.5 -32q33 0 33 64z" />
    <glyph glyph-name="adieresis" unicode="&#xe4;" horiz-adv-x="572" 
d="M396 0v47h-24q-48 -60 -150 -60q-84 0 -133 48.5t-49 118.5q0 69 50 120t152 51h150v15q0 93 -107 93q-95 0 -102 -65h-112q4 71 61.5 112.5t148.5 41.5q103 0 161.5 -46t58.5 -138v-338h-105zM257 79q57 0 96 37t39 90v39h-130q-108 0 -108 -84q0 -39 27 -60.5t76 -21.5
zM443 618h-100v109h100v-109zM254 618h-101v109h101v-109z" />
    <glyph glyph-name="aring" unicode="&#xe5;" horiz-adv-x="572" 
d="M396 0v47h-24q-48 -60 -150 -60q-84 0 -133 48.5t-49 118.5q0 69 50 120t152 51h150v15q0 93 -107 93q-95 0 -102 -65h-112q4 71 61.5 112.5t148.5 41.5q103 0 161.5 -46t58.5 -138v-338h-105zM257 79q57 0 96 37t39 90v39h-130q-108 0 -108 -84q0 -39 27 -60.5t76 -21.5
zM291 798q48 0 80.5 -32t32.5 -80q0 -45 -33 -78t-80 -33q-46 0 -80 33t-34 78q0 47 33.5 79.5t80.5 32.5zM291 633q23 0 38.5 15t15.5 38t-15.5 39t-38.5 16t-38.5 -16t-15.5 -39t15.5 -38t38.5 -15z" />
    <glyph glyph-name="ae" unicode="&#xe6;" horiz-adv-x="908" 
d="M861 245h-369q2 -77 37 -119.5t102 -42.5q87 0 111 65h114q-16 -74 -72.5 -117.5t-152.5 -43.5q-119 0 -186 91h-24q-68 -91 -192 -91q-88 0 -138.5 46.5t-50.5 115.5q0 86 57.5 130.5t154.5 44.5h132v16q0 93 -105 93q-92 0 -100 -65h-112q5 72 61 113t147 41
q113 0 167 -68h24q65 68 166 68q105 0 167 -69t62 -173v-35zM384 202v43h-121q-53 0 -81 -21.5t-28 -60.5q0 -41 26.5 -62.5t74.5 -21.5q57 0 93 34.5t36 88.5zM627 432q-54 0 -86.5 -29.5t-42.5 -78.5h248q-5 49 -36 78.5t-83 29.5z" />
    <glyph glyph-name="ccedilla" unicode="&#xe7;" horiz-adv-x="568" 
d="M412 163h112q-12 -80 -72.5 -128t-151.5 -48l-17 -45h13q12 9 36 9q31 0 51.5 -22.5t20.5 -59.5t-26 -63.5t-78 -26.5q-45 0 -70 21.5t-27 53.5h63q7 -24 36 -24q16 0 26 9.5t10 26.5t-10 26.5t-26 9.5q-19 0 -31 -12h-57l39 101q-97 14 -151 85.5t-54 178.5
q0 119 67.5 193t184.5 74q92 0 150.5 -46t69.5 -122h-112q-25 72 -107 72q-71 0 -105.5 -48t-34.5 -122q0 -76 34.5 -124.5t105.5 -48.5q94 0 111 80z" />
    <glyph glyph-name="egrave" unicode="&#xe8;" horiz-adv-x="583" 
d="M536 283v-38h-376q5 -162 143 -162q87 0 111 65h115q-15 -74 -73 -117.5t-154 -43.5q-118 0 -186 75t-68 196q0 120 67.5 192t183.5 72q110 0 172.5 -67.5t64.5 -171.5zM298 432q-110 0 -133 -103h255q-6 45 -37 74t-85 29zM271 582l-112 145h123l89 -145h-100z" />
    <glyph glyph-name="eacute" unicode="&#xe9;" horiz-adv-x="583" 
d="M536 283v-38h-376q5 -162 143 -162q87 0 111 65h115q-15 -74 -73 -117.5t-154 -43.5q-118 0 -186 75t-68 196q0 120 67.5 192t183.5 72q110 0 172.5 -67.5t64.5 -171.5zM298 432q-110 0 -133 -103h255q-6 45 -37 74t-85 29zM452 727l-113 -145h-99l89 145h123z" />
    <glyph glyph-name="ecircumflex" unicode="&#xea;" horiz-adv-x="583" 
d="M536 283v-38h-376q5 -162 143 -162q87 0 111 65h115q-15 -74 -73 -117.5t-154 -43.5q-118 0 -186 75t-68 196q0 120 67.5 192t183.5 72q110 0 172.5 -67.5t64.5 -171.5zM298 432q-110 0 -133 -103h255q-6 45 -37 74t-85 29zM351 727l108 -145h-91l-58 75h-24l-57 -75h-89
l109 145h102z" />
    <glyph glyph-name="edieresis" unicode="&#xeb;" horiz-adv-x="583" 
d="M536 283v-38h-376q5 -162 143 -162q87 0 111 65h115q-15 -74 -73 -117.5t-154 -43.5q-118 0 -186 75t-68 196q0 120 67.5 192t183.5 72q110 0 172.5 -67.5t64.5 -171.5zM298 432q-110 0 -133 -103h255q-6 45 -37 74t-85 29zM444 618h-100v109h100v-109zM255 618h-101v109
h101v-109z" />
    <glyph glyph-name="igrave" unicode="&#xec;" horiz-adv-x="273" 
d="M92 582l-112 145h123l89 -145h-100zM192 509v-509h-113v509h113z" />
    <glyph glyph-name="iacute" unicode="&#xed;" horiz-adv-x="272" 
d="M300 727l-113 -145h-99l89 145h123zM192 509v-509h-113v509h113z" />
    <glyph glyph-name="icircumflex" unicode="&#xee;" horiz-adv-x="272" 
d="M192 509v-509h-113v509h113zM189 727l108 -145h-91l-58 75h-24l-57 -75h-89l109 145h102z" />
    <glyph glyph-name="idieresis" unicode="&#xef;" horiz-adv-x="272" 
d="M282 618h-100v109h100v-109zM93 618h-101v109h101v-109zM192 509v-509h-113v509h113z" />
    <glyph glyph-name="eth" unicode="&#xf0;" horiz-adv-x="604" 
d="M139 556v61h153q-50 50 -138 110h136q72 -50 126 -110h111v-61h-64q93 -132 93 -294q0 -123 -66 -199t-190 -76q-114 0 -183 72.5t-69 181.5q0 108 63 178.5t160 70.5q80 0 118 -36h24q-20 47 -66 102h-208zM302 83q70 0 105.5 44t35.5 113t-35.5 113.5t-105.5 44.5
q-71 0 -106.5 -44.5t-35.5 -113.5q0 -68 36 -112.5t106 -44.5z" />
    <glyph glyph-name="ntilde" unicode="&#xf1;" horiz-adv-x="620" 
d="M549 0h-113v296q0 125 -113 125q-59 0 -95.5 -43.5t-36.5 -105.5v-272h-113v509h109v-49h24q46 62 147 62q94 0 142.5 -53.5t48.5 -150.5v-318zM423 722h59q0 -136 -98 -136q-35 0 -78 32t-61 32q-34 0 -34 -64h-59q0 136 98 136q35 0 78.5 -32t61.5 -32q33 0 33 64z" />
    <glyph glyph-name="ograve" unicode="&#xf2;" horiz-adv-x="610" 
d="M305 522q118 0 187.5 -74.5t69.5 -192.5q0 -119 -69.5 -193.5t-187.5 -74.5t-187.5 74.5t-69.5 193.5q0 118 69.5 192.5t187.5 74.5zM305 83q70 0 107 49.5t37 122.5q0 72 -37 121.5t-107 49.5t-107 -49.5t-37 -121.5q0 -73 37 -122.5t107 -49.5zM262 582l-112 145h123
l89 -145h-100z" />
    <glyph glyph-name="oacute" unicode="&#xf3;" horiz-adv-x="610" 
d="M305 522q118 0 187.5 -74.5t69.5 -192.5q0 -119 -69.5 -193.5t-187.5 -74.5t-187.5 74.5t-69.5 193.5q0 118 69.5 192.5t187.5 74.5zM305 83q70 0 107 49.5t37 122.5q0 72 -37 121.5t-107 49.5t-107 -49.5t-37 -121.5q0 -73 37 -122.5t107 -49.5zM464 727l-113 -145h-99
l89 145h123z" />
    <glyph glyph-name="ocircumflex" unicode="&#xf4;" horiz-adv-x="610" 
d="M305 522q118 0 187.5 -74.5t69.5 -192.5q0 -119 -69.5 -193.5t-187.5 -74.5t-187.5 74.5t-69.5 193.5q0 118 69.5 192.5t187.5 74.5zM305 83q70 0 107 49.5t37 122.5q0 72 -37 121.5t-107 49.5t-107 -49.5t-37 -121.5q0 -73 37 -122.5t107 -49.5zM357 727l108 -145h-91
l-58 75h-24l-57 -75h-89l109 145h102z" />
    <glyph glyph-name="otilde" unicode="&#xf5;" horiz-adv-x="610" 
d="M305 522q118 0 187.5 -74.5t69.5 -192.5q0 -119 -69.5 -193.5t-187.5 -74.5t-187.5 74.5t-69.5 193.5q0 118 69.5 192.5t187.5 74.5zM305 83q70 0 107 49.5t37 122.5q0 72 -37 121.5t-107 49.5t-107 -49.5t-37 -121.5q0 -73 37 -122.5t107 -49.5zM411 722h59
q0 -136 -98 -136q-35 0 -78 32t-61 32q-34 0 -34 -64h-59q0 136 98 136q35 0 78.5 -32t61.5 -32q33 0 33 64z" />
    <glyph glyph-name="odieresis" unicode="&#xf6;" horiz-adv-x="610" 
d="M305 522q118 0 187.5 -74.5t69.5 -192.5q0 -119 -69.5 -193.5t-187.5 -74.5t-187.5 74.5t-69.5 193.5q0 118 69.5 192.5t187.5 74.5zM305 83q70 0 107 49.5t37 122.5q0 72 -37 121.5t-107 49.5t-107 -49.5t-37 -121.5q0 -73 37 -122.5t107 -49.5zM450 618h-100v109h100
v-109zM261 618h-101v109h101v-109z" />
    <glyph glyph-name="divide" unicode="&#xf7;" horiz-adv-x="686" 
d="M408 17h-130v124h130v-124zM408 433h-130v124h130v-124zM603 239h-520v96h520v-96z" />
    <glyph glyph-name="oslash" unicode="&#xf8;" horiz-adv-x="610" 
d="M305 522q87 0 148 -41l24 28h85l-61 -72q61 -74 61 -182q0 -119 -69.5 -193.5t-187.5 -74.5q-86 0 -148 41l-24 -28h-85l60 72q-60 72 -60 183q0 118 69.5 192.5t187.5 74.5zM161 255q0 -60 20 -97l205 243q-32 25 -81 25q-70 0 -107 -49.5t-37 -121.5zM305 83
q70 0 107 49.5t37 122.5q0 53 -21 95l-205 -243q33 -24 82 -24z" />
    <glyph glyph-name="ugrave" unicode="&#xf9;" horiz-adv-x="620" 
d="M71 509h113v-296q0 -125 113 -125q59 0 95.5 43.5t36.5 105.5v272h113v-509h-109v49h-24q-46 -62 -147 -62q-94 0 -142.5 53.5t-48.5 150.5v318zM269 582l-112 145h123l89 -145h-100z" />
    <glyph glyph-name="uacute" unicode="&#xfa;" horiz-adv-x="620" 
d="M71 509h113v-296q0 -125 113 -125q59 0 95.5 43.5t36.5 105.5v272h113v-509h-109v49h-24q-46 -62 -147 -62q-94 0 -142.5 53.5t-48.5 150.5v318zM457 727l-113 -145h-99l89 145h123z" />
    <glyph glyph-name="ucircumflex" unicode="&#xfb;" horiz-adv-x="620" 
d="M71 509h113v-296q0 -125 113 -125q59 0 95.5 43.5t36.5 105.5v272h113v-509h-109v49h-24q-46 -62 -147 -62q-94 0 -142.5 53.5t-48.5 150.5v318zM357 727l108 -145h-91l-58 75h-24l-57 -75h-89l109 145h102z" />
    <glyph glyph-name="udieresis" unicode="&#xfc;" horiz-adv-x="620" 
d="M71 509h113v-296q0 -125 113 -125q59 0 95.5 43.5t36.5 105.5v272h113v-509h-109v49h-24q-46 -62 -147 -62q-94 0 -142.5 53.5t-48.5 150.5v318zM450 618h-100v109h100v-109zM261 618h-101v109h101v-109z" />
    <glyph glyph-name="yacute" unicode="&#xfd;" horiz-adv-x="566" 
d="M244 -200h-115l105 250l-216 459h119l142 -307h26l129 307h116zM442 727l-113 -145h-99l89 145h123z" />
    <glyph glyph-name="thorn" unicode="&#xfe;" horiz-adv-x="629" 
d="M329 426q-70 0 -105.5 -49t-35.5 -122q0 -74 35.5 -123t105.5 -49q67 0 103 47.5t36 124.5t-36 124t-103 47zM78 727h113v-267h24q48 62 146 62q101 0 160.5 -75t59.5 -192q0 -118 -59.5 -193t-160.5 -75q-99 0 -146 62h-24v-249h-113v927z" />
    <glyph glyph-name="ydieresis" unicode="&#xff;" horiz-adv-x="566" 
d="M244 -200h-115l105 250l-216 459h119l142 -307h26l129 307h116zM432 618h-100v109h100v-109zM243 618h-101v109h101v-109z" />
    <glyph glyph-name="Amacron" unicode="&#x100;" horiz-adv-x="706" 
d="M563 0l-66 205h-293l-65 -205h-120l237 714h192l238 -714h-123zM328 597l-90 -285h224l-91 285h-43zM498 802h-292v73h292v-73z" />
    <glyph glyph-name="amacron" unicode="&#x101;" horiz-adv-x="572" 
d="M396 0v47h-24q-48 -60 -150 -60q-84 0 -133 48.5t-49 118.5q0 69 50 120t152 51h150v15q0 93 -107 93q-95 0 -102 -65h-112q4 71 61.5 112.5t148.5 41.5q103 0 161.5 -46t58.5 -138v-338h-105zM257 79q57 0 96 37t39 90v39h-130q-108 0 -108 -84q0 -39 27 -60.5t76 -21.5
zM438 629h-292v75h292v-75z" />
    <glyph glyph-name="Abreve" unicode="&#x102;" horiz-adv-x="705" 
d="M563 0l-66 205h-293l-65 -205h-120l237 714h192l238 -714h-123zM328 597l-90 -285h224l-91 285h-43zM422 896h72q-1 -61 -37.5 -95t-104.5 -34q-66 0 -102.5 34t-38.5 95h73q0 -63 68 -63t70 63z" />
    <glyph glyph-name="abreve" unicode="&#x103;" horiz-adv-x="572" 
d="M396 0v47h-24q-48 -60 -150 -60q-84 0 -133 48.5t-49 118.5q0 69 50 120t152 51h150v15q0 93 -107 93q-95 0 -102 -65h-112q4 71 61.5 112.5t148.5 41.5q103 0 161.5 -46t58.5 -138v-338h-105zM257 79q57 0 96 37t39 90v39h-130q-108 0 -108 -84q0 -39 27 -60.5t76 -21.5
zM358 727h72q0 -68 -36.5 -106.5t-104.5 -38.5t-105 38.5t-37 106.5h73q0 -77 69 -77t69 77z" />
    <glyph glyph-name="Aogonek" unicode="&#x104;" horiz-adv-x="706" 
d="M563 0l-66 205h-293l-65 -205h-120l237 714h192l238 -714q-65 -33 -65 -81q0 -22 17.5 -35t49.5 -13v-71h-26q-64 0 -96.5 25.5t-32.5 70.5q0 31 19.5 60t53.5 44h-43zM328 597l-90 -285h224l-91 285h-43z" />
    <glyph glyph-name="aogonek" unicode="&#x105;" horiz-adv-x="572" 
d="M396 0v47h-24q-48 -60 -150 -60q-84 0 -133 48.5t-49 118.5q0 69 50 120t152 51h150v15q0 93 -107 93q-95 0 -102 -65h-112q4 71 61.5 112.5t148.5 41.5q103 0 161.5 -46t58.5 -138v-338q-65 -33 -65 -81q0 -22 17.5 -35t49.5 -13v-71h-26q-64 0 -96.5 25.5t-32.5 70.5
q0 31 19.5 60t53.5 44h-25zM257 79q57 0 96 37t39 90v39h-130q-108 0 -108 -84q0 -39 27 -60.5t76 -21.5z" />
    <glyph glyph-name="Cacute" unicode="&#x106;" horiz-adv-x="736" 
d="M553 216h126q-18 -104 -95 -166.5t-196 -62.5q-158 0 -247 102.5t-89 267.5t89.5 267.5t247.5 102.5q113 0 187.5 -57t94.5 -154h-126q-34 102 -156 102q-105 0 -160 -74t-55 -187t54.5 -187t159.5 -74q66 0 108.5 31.5t56.5 88.5zM545 896l-113 -129h-102l88 129h127z
" />
    <glyph glyph-name="cacute" unicode="&#x107;" horiz-adv-x="568" 
d="M412 163h112q-12 -80 -72.5 -128t-151.5 -48q-117 0 -184.5 74.5t-67.5 193.5t67.5 193t184.5 74q92 0 150.5 -46t69.5 -122h-112q-25 72 -107 72q-71 0 -105.5 -48t-34.5 -122q0 -76 34.5 -124.5t105.5 -48.5q94 0 111 80zM445 727l-113 -145h-99l89 145h123z" />
    <glyph glyph-name="Ccaron" unicode="&#x10c;" horiz-adv-x="736" 
d="M553 216h126q-18 -104 -95 -166.5t-196 -62.5q-158 0 -247 102.5t-89 267.5t89.5 267.5t247.5 102.5q113 0 187.5 -57t94.5 -154h-126q-34 102 -156 102q-105 0 -160 -74t-55 -187t54.5 -187t159.5 -74q66 0 108.5 31.5t56.5 88.5zM334 767l-108 129h95l53 -62h24l54 62
h93l-108 -129h-103z" />
    <glyph glyph-name="ccaron" unicode="&#x10d;" horiz-adv-x="568" 
d="M412 163h112q-12 -80 -72.5 -128t-151.5 -48q-117 0 -184.5 74.5t-67.5 193.5t67.5 193t184.5 74q92 0 150.5 -46t69.5 -122h-112q-25 72 -107 72q-71 0 -105.5 -48t-34.5 -122q0 -76 34.5 -124.5t105.5 -48.5q94 0 111 80zM248 582l-108 145h91l57 -75h24l57 75h90
l-109 -145h-102z" />
    <glyph glyph-name="Dcaron" unicode="&#x10e;" horiz-adv-x="753" 
d="M87 714h283q161 0 245.5 -96t84.5 -261t-85 -261t-245 -96h-283v714zM207 109h153q113 0 165.5 68.5t52.5 179.5q0 112 -52.5 180t-165.5 68h-153v-496zM293 767l-108 129h95l53 -62h24l54 62h93l-108 -129h-103z" />
    <glyph glyph-name="dcaron" unicode="&#x10f;" horiz-adv-x="738" 
d="M700 616h-59v111h125v-133l-65 -77h-66l65 77v22zM268 522q100 0 146 -62h24v267h113v-727h-109v49h-24q-50 -62 -150 -62q-101 0 -160.5 75.5t-59.5 192.5t59.5 192t160.5 75zM300 83q70 0 105.5 49t35.5 123q0 73 -35.5 122t-105.5 49q-67 0 -103 -47t-36 -124
t36 -124.5t103 -47.5z" />
    <glyph glyph-name="Dcroat" unicode="&#x110;" horiz-adv-x="765" 
d="M20 318v94h80v302h283q161 0 245.5 -96t84.5 -261t-85 -261t-245 -96h-283v318h-80zM220 109h153q113 0 165.5 68.5t52.5 179.5q0 112 -52.5 180t-165.5 68h-153v-193h205v-94h-205v-209z" />
    <glyph glyph-name="dslash" unicode="&#x111;" horiz-adv-x="642" 
d="M268 522q100 0 146 -62h24v115h-160v69h160v83h113v-83h77v-69h-77v-575h-109v49h-24q-50 -62 -150 -62q-101 0 -160.5 75.5t-59.5 192.5t59.5 192t160.5 75zM300 83q70 0 105.5 49t35.5 123q0 73 -35.5 122t-105.5 49q-67 0 -103 -47t-36 -124t36 -124.5t103 -47.5z" />
    <glyph glyph-name="Emacron" unicode="&#x112;" horiz-adv-x="659" 
d="M207 109h406v-109h-526v714h513v-109h-393v-184h311v-107h-311v-205zM495 802h-292v73h292v-73z" />
    <glyph glyph-name="emacron" unicode="&#x113;" horiz-adv-x="583" 
d="M536 283v-38h-376q5 -162 143 -162q87 0 111 65h115q-15 -74 -73 -117.5t-154 -43.5q-118 0 -186 75t-68 196q0 120 67.5 192t183.5 72q110 0 172.5 -67.5t64.5 -171.5zM298 432q-110 0 -133 -103h255q-6 45 -37 74t-85 29zM451 629h-292v75h292v-75z" />
    <glyph glyph-name="Edotaccent" unicode="&#x116;" horiz-adv-x="659" 
d="M207 109h406v-109h-526v714h513v-109h-393v-184h311v-107h-311v-205zM407 794h-116v102h116v-102z" />
    <glyph glyph-name="edotaccent" unicode="&#x117;" horiz-adv-x="583" 
d="M536 283v-38h-376q5 -162 143 -162q87 0 111 65h115q-15 -74 -73 -117.5t-154 -43.5q-118 0 -186 75t-68 196q0 120 67.5 192t183.5 72q110 0 172.5 -67.5t64.5 -171.5zM298 432q-110 0 -133 -103h255q-6 45 -37 74t-85 29zM358 618h-116v109h116v-109z" />
    <glyph glyph-name="Eogonek" unicode="&#x118;" horiz-adv-x="659" 
d="M207 109h406v-109q-65 -33 -65 -81q0 -22 17.5 -35t49.5 -13v-71h-26q-64 0 -96.5 25.5t-32.5 70.5q0 31 19.5 60t53.5 44h-446v714h513v-109h-393v-184h311v-107h-311v-205z" />
    <glyph glyph-name="eogonek" unicode="&#x119;" horiz-adv-x="583" 
d="M536 283v-38h-376q5 -162 143 -162q87 0 111 65h115q-20 -95 -109 -138q-67 -33 -67 -82q0 -22 17.5 -35t49.5 -13v-71h-26q-64 0 -96.5 25.5t-32.5 70.5q0 48 40 82h-3q-118 0 -186 75t-68 196q0 120 67.5 192t183.5 72q110 0 172.5 -67.5t64.5 -171.5zM298 432
q-110 0 -133 -103h255q-6 45 -37 74t-85 29z" />
    <glyph glyph-name="Ecaron" unicode="&#x11a;" horiz-adv-x="659" 
d="M207 109h406v-109h-526v714h513v-109h-393v-184h311v-107h-311v-205zM299 767l-108 129h95l53 -62h24l54 62h93l-108 -129h-103z" />
    <glyph glyph-name="ecaron" unicode="&#x11b;" horiz-adv-x="583" 
d="M536 283v-38h-376q5 -162 143 -162q87 0 111 65h115q-15 -74 -73 -117.5t-154 -43.5q-118 0 -186 75t-68 196q0 120 67.5 192t183.5 72q110 0 172.5 -67.5t64.5 -171.5zM298 432q-110 0 -133 -103h255q-6 45 -37 74t-85 29zM250 582l-108 145h91l57 -75h24l57 75h90
l-109 -145h-102z" />
    <glyph glyph-name="uni0122" unicode="&#x122;" horiz-adv-x="758" 
d="M382 388h316v-78q0 -64 -17.5 -120t-52.5 -102.5t-96 -73.5t-141 -27q-160 0 -249 103t-89 267t89.5 267t249.5 103q116 0 190 -55.5t95 -152.5h-125q-30 99 -160 99q-106 0 -161.5 -73t-55.5 -188t55 -188.5t162 -73.5q90 0 136.5 50.5t48.5 140.5h-195v102zM392 -226
h-68l62 61v20h-53v89h120v-109z" />
    <glyph glyph-name="uni0123" unicode="&#x123;" 
d="M443 509h109v-484q0 -108 -67 -171t-179 -63q-103 0 -166 42.5t-72 121.5h112q15 -71 124 -71q135 0 135 149v34h-24q-43 -62 -142 -62q-102 0 -163 72.5t-61 185.5t61.5 186t162.5 73t146 -62h24v49zM301 101q68 0 105 46.5t37 115.5q0 70 -37 116.5t-105 46.5
q-65 0 -102 -45t-37 -118t37 -117.5t102 -44.5zM308 746h68l-62 -61v-20h53v-89h-120v109z" />
    <glyph glyph-name="Itilde" unicode="&#x128;" horiz-adv-x="305" 
d="M92 714h120v-714h-120v714zM260 896h60q0 -129 -99 -129q-35 0 -78 29.5t-60 29.5q-35 0 -35 -59h-59q0 129 98 129q35 0 78 -29t61 -29q34 0 34 58z" />
    <glyph glyph-name="itilde" unicode="&#x129;" horiz-adv-x="272" 
d="M243 722h59q0 -136 -98 -136q-35 0 -78 32t-61 32q-34 0 -34 -64h-59q0 136 98 136q35 0 78.5 -32t61.5 -32q33 0 33 64zM192 509v-509h-113v509h113z" />
    <glyph glyph-name="Imacron" unicode="&#x12a;" horiz-adv-x="305" 
d="M92 714h120v-714h-120v714zM299 802h-292v73h292v-73z" />
    <glyph glyph-name="imacron" unicode="&#x12b;" horiz-adv-x="272" 
d="M282 629h-292v75h292v-75zM192 509v-509h-113v509h113z" />
    <glyph glyph-name="Iogonek" unicode="&#x12e;" horiz-adv-x="305" 
d="M92 714h120v-714q-65 -33 -65 -81q0 -22 17.5 -35t49.5 -13v-71h-26q-64 0 -96.5 25.5t-32.5 70.5q0 31 19.5 60t53.5 44h-40v714z" />
    <glyph glyph-name="iogonek" unicode="&#x12f;" horiz-adv-x="272" 
d="M192 509v-509q-65 -33 -65 -81q0 -22 17.5 -35t49.5 -13v-71h-26q-64 0 -96.5 25.5t-32.5 70.5q0 31 19.5 60t53.5 44h-33v509h113zM194 618h-116v109h116v-109z" />
    <glyph glyph-name="dotlessi" unicode="&#x131;" horiz-adv-x="272" 
d="M192 509v-509h-113v509h113z" />
    <glyph glyph-name="uni0136" unicode="&#x136;" horiz-adv-x="736" 
d="M87 0v714h120v-323l329 323h142l-217 -222l246 -492h-127l-198 386h-24l-151 -148v-238h-120zM389 -226h-68l62 61v20h-53v89h120v-109z" />
    <glyph glyph-name="uni0137" unicode="&#x137;" horiz-adv-x="574" 
d="M564 0h-120l-131 256h-24l-98 -108v-148h-113v727h113v-443l214 225h129l-147 -158zM316 -226h-68l62 61v20h-53v89h120v-109z" />
    <glyph glyph-name="kgreenlandic" unicode="&#x138;" horiz-adv-x="576" 
d="M564 0h-119l-131 257h-24l-99 -109v-148h-113v509h113v-225l214 225h129l-146 -157z" />
    <glyph glyph-name="Lacute" unicode="&#x139;" horiz-adv-x="637" 
d="M207 113h389v-113h-509v714h120v-601zM311 896l-113 -129h-102l88 129h127z" />
    <glyph glyph-name="lacute" unicode="&#x13a;" horiz-adv-x="269" 
d="M78 727h113v-727h-113v727zM299 896l-113 -129h-102l88 129h127z" />
    <glyph glyph-name="uni013B" unicode="&#x13b;" horiz-adv-x="637" 
d="M207 113h389v-113h-509v714h120v-601zM341 -226h-68l62 61v20h-53v89h120v-109z" />
    <glyph glyph-name="uni013C" unicode="&#x13c;" horiz-adv-x="269" 
d="M78 727h113v-727h-113v727zM135 -226h-68l62 61v20h-53v89h120v-109z" />
    <glyph glyph-name="Lcaron" unicode="&#x13d;" horiz-adv-x="637" 
d="M436 603h-59v111h125v-133l-65 -77h-66l65 77v22zM207 113h389v-113h-509v714h120v-601z" />
    <glyph glyph-name="lcaron" unicode="&#x13e;" horiz-adv-x="377" 
d="M280 616v111h125v-133l-65 -77h-66l65 77v22h-59zM78 727h113v-727h-113v727z" />
    <glyph glyph-name="Lslash" unicode="&#x141;" horiz-adv-x="659" 
d="M229 113h389v-113h-509v287l-89 -36v102l89 35v326h120v-278l175 71v-101l-175 -71v-222z" />
    <glyph glyph-name="lslash" unicode="&#x142;" horiz-adv-x="355" 
d="M121 727h113v-281l98 44v-103l-98 -44v-343h-113v292l-98 -44v103l98 44v332z" />
    <glyph glyph-name="Nacute" unicode="&#x143;" horiz-adv-x="773" 
d="M574 714h114v-714h-169l-294 540h-24v-540h-114v714h169l294 -540h24v540zM542 896l-113 -129h-102l88 129h127z" />
    <glyph glyph-name="nacute" unicode="&#x144;" horiz-adv-x="620" 
d="M549 0h-113v296q0 125 -113 125q-59 0 -95.5 -43.5t-36.5 -105.5v-272h-113v509h109v-49h24q46 62 147 62q94 0 142.5 -53.5t48.5 -150.5v-318zM472 727l-113 -145h-99l89 145h123z" />
    <glyph glyph-name="uni0145" unicode="&#x145;" horiz-adv-x="773" 
d="M574 714h114v-714h-169l-294 540h-24v-540h-114v714h169l294 -540h24v540zM383 -226h-68l62 61v20h-53v89h120v-109z" />
    <glyph glyph-name="uni0146" unicode="&#x146;" horiz-adv-x="620" 
d="M549 0h-113v296q0 125 -113 125q-59 0 -95.5 -43.5t-36.5 -105.5v-272h-113v509h109v-49h24q46 62 147 62q94 0 142.5 -53.5t48.5 -150.5v-318zM313 -226h-68l62 61v20h-53v89h120v-109z" />
    <glyph glyph-name="Ncaron" unicode="&#x147;" horiz-adv-x="773" 
d="M574 714h114v-714h-169l-294 540h-24v-540h-114v714h169l294 -540h24v540zM335 767l-108 129h95l53 -62h24l54 62h93l-108 -129h-103z" />
    <glyph glyph-name="ncaron" unicode="&#x148;" horiz-adv-x="620" 
d="M549 0h-113v296q0 125 -113 125q-59 0 -95.5 -43.5t-36.5 -105.5v-272h-113v509h109v-49h24q46 62 147 62q94 0 142.5 -53.5t48.5 -150.5v-318zM264 582l-108 145h91l57 -75h24l57 75h90l-109 -145h-102z" />
    <glyph glyph-name="Eng" unicode="&#x14a;" horiz-adv-x="773" 
d="M574 714h114v-694q0 -106 -59.5 -163t-164.5 -57h-48v101h44q55 0 83 23t33 76h-57l-294 540h-24v-540h-114v714h169l294 -540h24v540z" />
    <glyph glyph-name="eng" unicode="&#x14b;" horiz-adv-x="620" 
d="M549 318v-339q0 -90 -48 -134.5t-132 -44.5h-64v96h46q85 0 85 90v310q0 125 -113 125q-59 0 -95.5 -43.5t-36.5 -105.5v-272h-113v509h109v-49h24q46 62 147 62q94 0 142.5 -53.5t48.5 -150.5z" />
    <glyph glyph-name="Omacron" unicode="&#x14c;" horiz-adv-x="786" 
d="M393 727q161 0 250.5 -104t89.5 -266t-89.5 -266t-250.5 -104t-251 104t-90 266t90 266t251 104zM393 96q108 0 163 74t55 187t-55 187t-163 74t-163.5 -74t-55.5 -187t55.5 -187t163.5 -74zM539 802h-292v73h292v-73z" />
    <glyph glyph-name="omacron" unicode="&#x14d;" horiz-adv-x="610" 
d="M305 522q118 0 187.5 -74.5t69.5 -192.5q0 -119 -69.5 -193.5t-187.5 -74.5t-187.5 74.5t-69.5 193.5q0 118 69.5 192.5t187.5 74.5zM305 83q70 0 107 49.5t37 122.5q0 72 -37 121.5t-107 49.5t-107 -49.5t-37 -121.5q0 -73 37 -122.5t107 -49.5zM451 629h-292v75h292
v-75z" />
    <glyph glyph-name="Ohungarumlaut" unicode="&#x150;" horiz-adv-x="786" 
d="M393 727q161 0 250.5 -104t89.5 -266t-89.5 -266t-250.5 -104t-251 104t-90 266t90 266t251 104zM393 96q108 0 163 74t55 187t-55 187t-163 74t-163.5 -74t-55.5 -187t55.5 -187t163.5 -74zM440 896l-100 -129h-92l77 129h115zM610 896l-101 -129h-91l78 129h114z" />
    <glyph glyph-name="ohungarumlaut" unicode="&#x151;" horiz-adv-x="610" 
d="M305 522q118 0 187.5 -74.5t69.5 -192.5q0 -119 -69.5 -193.5t-187.5 -74.5t-187.5 74.5t-69.5 193.5q0 118 69.5 192.5t187.5 74.5zM305 83q70 0 107 49.5t37 122.5q0 72 -37 121.5t-107 49.5t-107 -49.5t-37 -121.5q0 -73 37 -122.5t107 -49.5zM348 727l-97 -145h-92
l75 145h114zM519 727l-99 -145h-91l75 145h115z" />
    <glyph glyph-name="OE" unicode="&#x152;" horiz-adv-x="1088" 
d="M687 109h355v-109h-475v45h-24q-64 -58 -170 -58q-147 0 -234 102t-87 268t87 268t234 102q106 0 170 -58h24v45h462v-109h-342v-184h260v-106h-260v-206zM392 96q126 0 175 96v330q-49 96 -175 96q-106 0 -162 -74t-56 -187t56 -187t162 -74z" />
    <glyph glyph-name="oe" unicode="&#x153;" horiz-adv-x="972" 
d="M925 245h-370q2 -76 36.5 -119t101.5 -43q87 0 111 65h114q-15 -74 -72 -117.5t-153 -43.5q-116 0 -182 87h-24q-65 -87 -186 -87q-116 0 -184.5 75t-68.5 193q0 117 68.5 192t184.5 75t186 -86h24q65 86 185 86q105 0 167 -68.5t62 -170.5v-38zM302 83q69 0 105 49.5
t36 122.5q0 72 -36 121.5t-105 49.5t-105 -49.5t-36 -121.5q0 -73 36 -122.5t105 -49.5zM691 432q-55 0 -88 -27.5t-43 -75.5h248q-4 46 -34.5 74.5t-82.5 28.5z" />
    <glyph glyph-name="Racute" unicode="&#x154;" horiz-adv-x="714" 
d="M87 714h326q116 0 179.5 -56.5t63.5 -158.5q0 -133 -107 -187l110 -312h-122l-101 286q-14 -2 -63 -2h-166v-284h-120v714zM207 608v-220h189q138 0 138 110q0 55 -32 82.5t-106 27.5h-189zM490 896l-113 -129h-102l88 129h127z" />
    <glyph glyph-name="racute" unicode="&#x155;" horiz-adv-x="424" 
d="M396 509v-105h-46q-78 0 -118.5 -42.5t-40.5 -123.5v-238h-113v509h109v-59h24q44 59 142 59h43zM362 727l-113 -145h-99l89 145h123z" />
    <glyph glyph-name="uni0156" unicode="&#x156;" horiz-adv-x="714" 
d="M87 714h326q116 0 179.5 -56.5t63.5 -158.5q0 -133 -107 -187l110 -312h-122l-101 286q-14 -2 -63 -2h-166v-284h-120v714zM207 608v-220h189q138 0 138 110q0 55 -32 82.5t-106 27.5h-189zM360 -226h-68l62 61v20h-53v89h120v-109z" />
    <glyph glyph-name="uni0157" unicode="&#x157;" horiz-adv-x="424" 
d="M396 509v-105h-46q-78 0 -118.5 -42.5t-40.5 -123.5v-238h-113v509h109v-59h24q44 59 142 59h43zM134 -226h-68l62 61v20h-53v89h120v-109z" />
    <glyph glyph-name="Rcaron" unicode="&#x158;" horiz-adv-x="714" 
d="M87 714h326q116 0 179.5 -56.5t63.5 -158.5q0 -133 -107 -187l110 -312h-122l-101 286q-14 -2 -63 -2h-166v-284h-120v714zM207 608v-220h189q138 0 138 110q0 55 -32 82.5t-106 27.5h-189zM303 767l-108 129h95l53 -62h24l54 62h93l-108 -129h-103z" />
    <glyph glyph-name="rcaron" unicode="&#x159;" horiz-adv-x="424" 
d="M396 509v-105h-46q-78 0 -118.5 -42.5t-40.5 -123.5v-238h-113v509h109v-59h24q44 59 142 59h43zM182 582l-108 145h91l57 -75h24l57 75h90l-109 -145h-102z" />
    <glyph glyph-name="Sacute" unicode="&#x15a;" horiz-adv-x="677" 
d="M605 526h-122q-22 96 -150 96q-60 0 -98.5 -25t-38.5 -72q0 -40 27.5 -59.5t76.5 -28.5q7 -1 134 -26q187 -41 187 -205q0 -93 -72.5 -156t-206.5 -63q-128 0 -207 61t-89 161h122q21 -117 179 -117q69 0 111 28.5t42 80.5q0 47 -27.5 71t-80.5 35l-139 27
q-178 34 -178 188q0 89 69 147t191 58q113 0 185.5 -54.5t84.5 -146.5zM481 896l-113 -129h-102l88 129h127z" />
    <glyph glyph-name="sacute" unicode="&#x15b;" horiz-adv-x="531" 
d="M476 373h-113q-9 55 -100 55q-92 0 -92 -53q0 -24 15.5 -34.5t49.5 -16.5l99 -16q155 -25 155 -158q0 -68 -57.5 -115.5t-160.5 -47.5q-108 0 -166 44t-67 123h113q13 -73 118 -73q107 0 107 66q0 29 -19 44.5t-64 23.5l-106 18q-130 22 -130 134q0 68 53 111.5t156 43.5
q91 0 146 -40.5t63 -108.5zM412 727l-113 -145h-99l89 145h123z" />
    <glyph glyph-name="Scedilla" unicode="&#x15e;" horiz-adv-x="677" 
d="M605 526h-122q-22 96 -150 96q-60 0 -98.5 -25t-38.5 -72q0 -40 27.5 -59.5t76.5 -28.5q7 -1 134 -26q187 -41 187 -205q0 -93 -72.5 -156t-206.5 -63h-7l-17 -45h13q12 9 36 9q31 0 51.5 -22.5t20.5 -59.5t-26 -63.5t-78 -26.5q-45 0 -70 21.5t-27 53.5h63q7 -24 36 -24
q16 0 26 9.5t10 26.5t-10 26.5t-26 9.5q-19 0 -31 -12h-57l39 100q-106 13 -170 71t-72 148h122q21 -117 179 -117q69 0 111 28.5t42 80.5q0 47 -27.5 71t-80.5 35l-139 27q-178 34 -178 188q0 89 69 147t191 58q113 0 185.5 -54.5t84.5 -146.5z" />
    <glyph glyph-name="scedilla" unicode="&#x15f;" horiz-adv-x="531" 
d="M476 373h-113q-9 55 -100 55q-92 0 -92 -53q0 -24 15.5 -34.5t49.5 -16.5l99 -16q155 -25 155 -158q0 -68 -57.5 -115.5t-160.5 -47.5h-10l-17 -45h13q12 9 36 9q31 0 51.5 -22.5t20.5 -59.5t-26 -63.5t-78 -26.5q-45 0 -70 21.5t-27 53.5h63q7 -24 36 -24q16 0 26 9.5
t10 26.5t-10 26.5t-26 9.5q-19 0 -31 -12h-57l39 101q-163 22 -176 163h113q13 -73 118 -73q107 0 107 66q0 29 -19 44.5t-64 23.5l-106 18q-130 22 -130 134q0 68 53 111.5t156 43.5q91 0 146 -40.5t63 -108.5z" />
    <glyph glyph-name="Scaron" unicode="&#x160;" horiz-adv-x="677" 
d="M605 526h-122q-22 96 -150 96q-60 0 -98.5 -25t-38.5 -72q0 -40 27.5 -59.5t76.5 -28.5q7 -1 134 -26q187 -41 187 -205q0 -93 -72.5 -156t-206.5 -63q-128 0 -207 61t-89 161h122q21 -117 179 -117q69 0 111 28.5t42 80.5q0 47 -27.5 71t-80.5 35l-139 27
q-178 34 -178 188q0 89 69 147t191 58q113 0 185.5 -54.5t84.5 -146.5zM284 767l-108 129h95l53 -62h24l54 62h93l-108 -129h-103z" />
    <glyph glyph-name="scaron" unicode="&#x161;" horiz-adv-x="531" 
d="M476 373h-113q-9 55 -100 55q-92 0 -92 -53q0 -24 15.5 -34.5t49.5 -16.5l99 -16q155 -25 155 -158q0 -68 -57.5 -115.5t-160.5 -47.5q-108 0 -166 44t-67 123h113q13 -73 118 -73q107 0 107 66q0 29 -19 44.5t-64 23.5l-106 18q-130 22 -130 134q0 68 53 111.5t156 43.5
q91 0 146 -40.5t63 -108.5zM218 582l-108 145h91l57 -75h24l57 75h90l-109 -145h-102z" />
    <glyph glyph-name="uni0162" unicode="&#x162;" horiz-adv-x="611" 
d="M594 714v-106h-228v-608h-120v608h-229v106h577zM305 -226h-68l62 61v20h-53v89h120v-109z" />
    <glyph glyph-name="uni0163" unicode="&#x163;" horiz-adv-x="395" 
d="M219 509h120v-96h-120v-248q0 -67 78 -67h42v-98h-44q-92 0 -140.5 34t-48.5 116v263h-81v96h81v148h113v-148zM226 -226h-68l62 61v20h-53v89h120v-109z" />
    <glyph glyph-name="Tcaron" unicode="&#x164;" horiz-adv-x="611" 
d="M594 714v-106h-228v-608h-120v608h-229v106h577zM254 767l-108 129h95l53 -62h24l54 62h93l-108 -129h-103z" />
    <glyph glyph-name="tcaron" unicode="&#x165;" horiz-adv-x="416" 
d="M374 657h-59v111h125v-133l-65 -77h-66l65 77v22zM219 509h120v-96h-120v-248q0 -67 78 -67h42v-98h-44q-92 0 -140.5 34t-48.5 116v263h-81v96h81v148h113v-148z" />
    <glyph glyph-name="Tbar" unicode="&#x166;" horiz-adv-x="611" 
d="M594 714v-106h-228v-196h152v-94h-152v-318h-120v318h-154v94h154v196h-229v106h577z" />
    <glyph glyph-name="tbar" unicode="&#x167;" horiz-adv-x="389" 
d="M219 509h120v-92h-120v-88h120v-92h-120v-73q0 -67 78 -67h42v-97h-44q-92 0 -140.5 34t-48.5 116v87h-81v92h81v88h-81v92h81v148h113v-148z" />
    <glyph glyph-name="Utilde" unicode="&#x168;" horiz-adv-x="750" 
d="M545 714h120v-455q0 -130 -75 -201t-215 -71t-215 71t-75 201v455h120v-452q0 -77 44 -121.5t126 -44.5t126 44.5t44 121.5v452zM481 896h60q0 -129 -99 -129q-35 0 -78 29.5t-60 29.5q-35 0 -35 -59h-59q0 129 98 129q35 0 78 -29t61 -29q34 0 34 58z" />
    <glyph glyph-name="utilde" unicode="&#x169;" horiz-adv-x="620" 
d="M72 509h113v-296q0 -125 113 -125q59 0 95.5 43.5t36.5 105.5v272h113v-509h-109v49h-24q-46 -62 -147 -62q-94 0 -142.5 53.5t-48.5 150.5v318zM414 722h59q0 -136 -98 -136q-35 0 -78 32t-61 32q-34 0 -34 -64h-59q0 136 98 136q35 0 78.5 -32t61.5 -32q33 0 33 64z
" />
    <glyph glyph-name="Umacron" unicode="&#x16a;" horiz-adv-x="750" 
d="M545 714h120v-455q0 -130 -75 -201t-215 -71t-215 71t-75 201v455h120v-452q0 -77 44 -121.5t126 -44.5t126 44.5t44 121.5v452zM521 802h-292v73h292v-73z" />
    <glyph glyph-name="umacron" unicode="&#x16b;" horiz-adv-x="620" 
d="M72 509h113v-296q0 -125 113 -125q59 0 95.5 43.5t36.5 105.5v272h113v-509h-109v49h-24q-46 -62 -147 -62q-94 0 -142.5 53.5t-48.5 150.5v318zM452 629h-292v75h292v-75z" />
    <glyph glyph-name="Uring" unicode="&#x16e;" horiz-adv-x="750" 
d="M545 714h120v-455q0 -130 -75 -201t-215 -71t-215 71t-75 201v455h120v-452q0 -77 44 -121.5t126 -44.5t126 44.5t44 121.5v452zM375 974q47 0 80 -33t33 -79t-33 -79t-80 -33t-80.5 33t-33.5 79t33.5 79t80.5 33zM375 808q23 0 38.5 15.5t15.5 38.5t-15.5 38.5
t-38.5 15.5t-38.5 -15.5t-15.5 -38.5t15.5 -38.5t38.5 -15.5z" />
    <glyph glyph-name="uring" unicode="&#x16f;" horiz-adv-x="620" 
d="M72 509h113v-296q0 -125 113 -125q59 0 95.5 43.5t36.5 105.5v272h113v-509h-109v49h-24q-46 -62 -147 -62q-94 0 -142.5 53.5t-48.5 150.5v318zM307 798q48 0 80.5 -32t32.5 -80q0 -45 -33 -78t-80 -33q-46 0 -80 33t-34 78q0 47 33.5 79.5t80.5 32.5zM307 633
q23 0 38.5 15t15.5 38t-15.5 39t-38.5 16t-38.5 -16t-15.5 -39t15.5 -38t38.5 -15z" />
    <glyph glyph-name="Uhungarumlaut" unicode="&#x170;" horiz-adv-x="750" 
d="M545 714h120v-455q0 -130 -75 -201t-215 -71t-215 71t-75 201v455h120v-452q0 -77 44 -121.5t126 -44.5t126 44.5t44 121.5v452zM426 896l-100 -129h-92l77 129h115zM596 896l-101 -129h-91l78 129h114z" />
    <glyph glyph-name="uhungarumlaut" unicode="&#x171;" horiz-adv-x="620" 
d="M72 509h113v-296q0 -125 113 -125q59 0 95.5 43.5t36.5 105.5v272h113v-509h-109v49h-24q-46 -62 -147 -62q-94 0 -142.5 53.5t-48.5 150.5v318zM343 727l-97 -145h-92l75 145h114zM514 727l-99 -145h-91l75 145h115z" />
    <glyph glyph-name="Uogonek" unicode="&#x172;" horiz-adv-x="750" 
d="M375 96q82 0 126 44.5t44 121.5v452h120v-455q0 -184 -149 -247q-53 -23 -76.5 -43t-23.5 -50q0 -22 17.5 -35t49.5 -13v-71h-26q-64 0 -96.5 25.5t-32.5 70.5q0 55 50 91h-3q-140 0 -215 71t-75 201v455h120v-452q0 -77 44 -121.5t126 -44.5z" />
    <glyph glyph-name="uogonek" unicode="&#x173;" horiz-adv-x="620" 
d="M72 509h113v-296q0 -125 113 -125q59 0 95.5 43.5t36.5 105.5v272h113v-509q-65 -33 -65 -81q0 -22 17.5 -35t49.5 -13v-71h-26q-64 0 -96.5 25.5t-32.5 70.5q0 31 19.5 60t53.5 44h-29v49h-24q-46 -62 -147 -62q-94 0 -142.5 53.5t-48.5 150.5v318z" />
    <glyph glyph-name="Ydieresis" unicode="&#x178;" horiz-adv-x="661" 
d="M316 409h28l171 305h129l-254 -451v-263h-120v263l-254 451h129zM476 794h-100v102h100v-102zM287 794h-101v102h101v-102z" />
    <glyph glyph-name="Zacute" unicode="&#x179;" horiz-adv-x="656" 
d="M594 714v-134l-397 -446v-25h412v-109h-563v134l398 446v25h-371v109h521zM483 896l-113 -129h-102l88 129h127z" />
    <glyph glyph-name="zacute" unicode="&#x17a;" horiz-adv-x="535" 
d="M486 0h-437v120l282 269v24h-265v96h414v-119l-281 -270v-24h287v-96zM416 727l-113 -145h-99l89 145h123z" />
    <glyph glyph-name="Zdotaccent" unicode="&#x17b;" horiz-adv-x="656" 
d="M594 714v-134l-397 -446v-25h412v-109h-563v134l398 446v25h-371v109h521zM386 794h-116v102h116v-102z" />
    <glyph glyph-name="zdotaccent" unicode="&#x17c;" horiz-adv-x="535" 
d="M486 0h-437v120l282 269v24h-265v96h414v-119l-281 -270v-24h287v-96zM330 618h-116v109h116v-109z" />
    <glyph glyph-name="Zcaron" unicode="&#x17d;" horiz-adv-x="656" 
d="M594 714v-134l-397 -446v-25h412v-109h-563v134l398 446v25h-371v109h521zM277 767l-108 129h95l53 -62h24l54 62h93l-108 -129h-103z" />
    <glyph glyph-name="zcaron" unicode="&#x17e;" horiz-adv-x="535" 
d="M486 0h-437v120l282 269v24h-265v96h414v-119l-281 -270v-24h287v-96zM223 582l-108 145h91l57 -75h24l57 75h90l-109 -145h-102z" />
    <glyph glyph-name="florin" unicode="&#x192;" horiz-adv-x="432" 
d="M143 -200h-113l95 540h-91v96h108l17 97q18 104 71.5 149t147.5 45h44v-96h-42q-49 0 -73.5 -27t-36.5 -85l-16 -83h113v-96h-129z" />
    <glyph glyph-name="circumflex" unicode="&#x2c6;" horiz-adv-x="399" 
d="M251 727l108 -145h-91l-58 75h-24l-57 -75h-89l109 145h102z" />
    <glyph glyph-name="caron" unicode="&#x2c7;" horiz-adv-x="399" 
d="M148 582l-108 145h91l57 -75h24l57 75h90l-109 -145h-102z" />
    <glyph glyph-name="breve" unicode="&#x2d8;" horiz-adv-x="363" 
d="M251 727h72q0 -68 -36.5 -106.5t-104.5 -38.5t-105 38.5t-37 106.5h73q0 -77 69 -77t69 77z" />
    <glyph glyph-name="dotaccent" unicode="&#x2d9;" horiz-adv-x="196" 
d="M156 618h-116v109h116v-109z" />
    <glyph glyph-name="ring" unicode="&#x2da;" horiz-adv-x="307" 
d="M154 798q48 0 80.5 -32t32.5 -80q0 -45 -33 -78t-80 -33q-46 0 -80 33t-34 78q0 47 33.5 79.5t80.5 32.5zM154 633q23 0 38.5 15t15.5 38t-15.5 39t-38.5 16t-38.5 -16t-15.5 -39t15.5 -38t38.5 -15z" />
    <glyph glyph-name="ogonek" unicode="&#x2db;" horiz-adv-x="234" 
d="M126 8l57 -8q-65 -33 -65 -81q0 -22 17.5 -35t49.5 -13v-71h-26q-64 0 -96.5 25.5t-32.5 70.5q0 37 26 68.5t70 43.5z" />
    <glyph glyph-name="tilde" unicode="&#x2dc;" horiz-adv-x="410" 
d="M311 722h59q0 -136 -98 -136q-35 0 -78 32t-61 32q-34 0 -34 -64h-59q0 136 98 136q35 0 78.5 -32t61.5 -32q33 0 33 64z" />
    <glyph glyph-name="hungarumlaut" unicode="&#x2dd;" horiz-adv-x="440" 
d="M229 727l-97 -145h-92l75 145h114zM400 727l-99 -145h-91l75 145h115z" />
    <glyph glyph-name="uni03A9" unicode="&#x3a9;" horiz-adv-x="765" 
d="M588 121v-23h123v-98h-284v100q163 105 163 278q0 111 -57 175.5t-151 64.5t-151 -64.5t-57 -175.5q0 -173 163 -278v-100h-284v98h124v23q-125 104 -125 266q0 150 89.5 245t240.5 95q152 0 241 -94.5t89 -245.5q0 -159 -124 -266z" />
    <glyph glyph-name="pi" unicode="&#x3c0;" horiz-adv-x="631" 
d="M583 0h-37q-95 0 -130.5 41.5t-35.5 123.5v248h-163v-413h-113v413h-79v96h558v-96h-90v-248q0 -69 53 -69h37v-96z" />
    <glyph glyph-name="uni0401" unicode="&#x401;" horiz-adv-x="659" 
d="M207 109h406v-109h-526v714h513v-109h-393v-184h311v-107h-311v-205zM485 794h-100v102h100v-102zM296 794h-101v102h101v-102z" />
    <glyph glyph-name="uni0402" unicode="&#x402;" horiz-adv-x="813" 
d="M763 207q0 -111 -63.5 -165.5t-175.5 -54.5q-41 0 -53 4v109q9 -4 43 -4q129 0 129 110q0 114 -167 114q-79 0 -144 -16v-304h-120v608h-195v106h566v-106h-251v-195q74 16 167 16q138 0 201 -62t63 -160z" />
    <glyph glyph-name="uni0403" unicode="&#x403;" horiz-adv-x="631" 
d="M480 902l-113 -145h-99l89 145h123zM589 605h-382v-605h-120v714h502v-109z" />
    <glyph glyph-name="uni0404" unicode="&#x404;" horiz-adv-x="726" 
d="M551 203h126q-16 -97 -94 -156.5t-196 -59.5q-157 0 -246 103t-89 267q0 165 88.5 267.5t245.5 102.5q111 0 187 -55.5t96 -148.5h-125q-36 96 -160 96q-90 0 -142 -55.5t-62 -145.5h298v-107h-299q6 -96 59 -156t148 -60q65 0 108 28.5t57 79.5z" />
    <glyph glyph-name="uni0405" unicode="&#x405;" horiz-adv-x="677" 
d="M605 526h-122q-22 96 -150 96q-60 0 -98.5 -25t-38.5 -72q0 -40 27.5 -59.5t76.5 -28.5q7 -1 134 -26q187 -41 187 -205q0 -93 -72.5 -156t-206.5 -63q-128 0 -207 61t-89 161h122q21 -117 179 -117q69 0 111 28.5t42 80.5q0 47 -27.5 71t-80.5 35l-139 27
q-178 34 -178 188q0 89 69 147t191 58q113 0 185.5 -54.5t84.5 -146.5z" />
    <glyph glyph-name="uni0406" unicode="&#x406;" horiz-adv-x="304" 
d="M92 714h120v-714h-120v714z" />
    <glyph glyph-name="uni0407" unicode="&#x407;" horiz-adv-x="304" 
d="M92 714h120v-714h-120v714zM298 794h-100v102h100v-102zM109 794h-101v102h101v-102z" />
    <glyph glyph-name="uni0408" unicode="&#x408;" horiz-adv-x="593" 
d="M274 -13q-105 0 -170 61t-71 173h120q10 -125 122 -125q53 0 83 35t30 103v480h120v-480q0 -117 -62 -182t-172 -65z" />
    <glyph glyph-name="uni0409" unicode="&#x409;" horiz-adv-x="1132" 
d="M826 0h-300v605h-252v-184q0 -129 -13 -212t-43.5 -129t-72 -63t-105.5 -17h-23v118h22q47 0 71.5 21t38 88t13.5 197v290h484v-258h180q122 0 189 -59.5t67 -167.5t-67 -168.5t-189 -60.5zM646 106h160q82 0 118 31.5t36 91.5t-36 90.5t-118 30.5h-160v-244z" />
    <glyph glyph-name="uni040A" unicode="&#x40a;" horiz-adv-x="1160" 
d="M854 0h-300v319h-347v-319h-120v714h120v-285h347v285h120v-258h180q122 0 189 -59.5t67 -167.5t-67 -168.5t-189 -60.5zM674 106h160q82 0 118 31.5t36 91.5t-36 90.5t-118 30.5h-160v-244z" />
    <glyph glyph-name="uni040B" unicode="&#x40b;" horiz-adv-x="819" 
d="M763 0h-120v190q0 26 -1 39t-9.5 33.5t-25 31t-49 18.5t-79.5 8q-75 0 -147 -18v-302h-120v608h-195v106h566v-106h-251v-197q77 18 171 18q72 0 123 -14t77 -33t40.5 -53t17 -59.5t2.5 -67.5v-202z" />
    <glyph glyph-name="uni040C" unicode="&#x40c;" horiz-adv-x="713" 
d="M87 0v714h120v-292h193l137 292h124l-160 -347l169 -367h-124l-146 313h-193v-313h-120zM514 896l-113 -129h-102l88 129h127z" />
    <glyph glyph-name="uni040E" unicode="&#x40e;" horiz-adv-x="662" 
d="M325 368h28l165 346h123l-342 -714h-122l102 214l-264 500h128zM426 904h91q-4 -72 -52.5 -113t-129.5 -41q-79 0 -128 41t-53 113h92q2 -34 26 -54.5t63 -20.5t63.5 20.5t27.5 54.5z" />
    <glyph glyph-name="uni040F" unicode="&#x40f;" horiz-adv-x="759" 
d="M320 -175v175h-233v714h120v-605h346v605h120v-714h-233v-175h-120z" />
    <glyph glyph-name="uni0410" unicode="&#x410;" horiz-adv-x="705" 
d="M563 0l-66 205h-293l-65 -205h-120l237 714h192l238 -714h-123zM328 597l-90 -285h224l-91 285h-43z" />
    <glyph glyph-name="uni0411" unicode="&#x411;" horiz-adv-x="702" 
d="M207 433h201q117 0 180.5 -57t63.5 -159q0 -103 -64 -160t-180 -57h-321v714h506v-109h-386v-172zM207 106h180q77 0 110.5 28.5t33.5 85.5q0 113 -144 113h-180v-227z" />
    <glyph glyph-name="uni0412" unicode="&#x412;" horiz-adv-x="713" 
d="M567 386v-24q43 -19 69.5 -62t26.5 -96q0 -91 -62.5 -147.5t-181.5 -56.5h-332v714h323q111 0 171.5 -53t60.5 -132q0 -101 -75 -143zM207 421h192q120 0 120 95q0 47 -28 70.5t-92 23.5h-192v-189zM207 104h196q137 0 137 108q0 53 -32 80t-105 27h-196v-215z" />
    <glyph glyph-name="uni0413" unicode="&#x413;" horiz-adv-x="631" 
d="M589 605h-382v-605h-120v714h502v-109z" />
    <glyph glyph-name="uni0414" unicode="&#x414;" horiz-adv-x="779" 
d="M651 109h102v-284h-117v175h-504v-175h-117v284h74q87 180 87 438v167h475v-605zM533 109v496h-245v-69q0 -269 -76 -427h321z" />
    <glyph glyph-name="uni0415" unicode="&#x415;" horiz-adv-x="659" 
d="M207 109h406v-109h-526v714h513v-109h-393v-184h311v-107h-311v-205z" />
    <glyph glyph-name="uni0416" unicode="&#x416;" horiz-adv-x="1052" 
d="M751 308h-166v-308h-118v308h-166l-127 -308h-124l151 362l-142 352h124l118 -297h166v297h118v-297h166l118 297h124l-142 -352l151 -362h-124z" />
    <glyph glyph-name="uni0417" unicode="&#x417;" horiz-adv-x="678" 
d="M478 520q0 47 -37.5 72.5t-97.5 25.5q-129 0 -148 -96h-124q12 96 84 150.5t189 54.5q120 0 188.5 -54.5t68.5 -137.5q0 -103 -74 -143v-24q101 -41 101 -164q0 -92 -75 -154.5t-206 -62.5q-137 0 -213 58t-91 162h126q28 -111 179 -111q71 0 113 29.5t42 82.5
q0 108 -143 108h-110v107h110q62 0 90 27t28 70z" />
    <glyph glyph-name="uni0418" unicode="&#x418;" horiz-adv-x="776" 
d="M87 714h114v-556h24l295 556h170v-714h-114v556h-24l-295 -556h-170v714z" />
    <glyph glyph-name="uni0419" unicode="&#x419;" horiz-adv-x="776" 
d="M87 714h114v-556h24l295 556h170v-714h-114v556h-24l-295 -556h-170v714zM479 904h91q-4 -72 -52.5 -113t-129.5 -41q-79 0 -128 41t-53 113h92q2 -34 26 -54.5t63 -20.5t63.5 20.5t27.5 54.5z" />
    <glyph glyph-name="uni041A" unicode="&#x41a;" horiz-adv-x="699" 
d="M87 0v714h120v-292h193l137 292h124l-160 -347l169 -367h-124l-146 313h-193v-313h-120z" />
    <glyph glyph-name="uni041B" unicode="&#x41b;" horiz-adv-x="743" 
d="M17 118h22q47 0 71.5 21t38 90.5t13.5 205.5v279h495v-714h-120v605h-263v-184q0 -129 -13 -212t-43.5 -129t-72 -63t-105.5 -17h-23v118z" />
    <glyph glyph-name="uni041C" unicode="&#x41c;" horiz-adv-x="872" 
d="M87 0v714h190l148 -311h24l146 311h191v-714h-114v571h-24l-151 -313h-122l-150 313h-24v-571h-114z" />
    <glyph glyph-name="uni041D" unicode="&#x41d;" horiz-adv-x="770" 
d="M564 714h120v-714h-120v312h-357v-312h-120v714h120v-290h357v290z" />
    <glyph glyph-name="uni041E" unicode="&#x41e;" horiz-adv-x="785" 
d="M393 727q161 0 250.5 -104t89.5 -266t-89.5 -266t-250.5 -104t-251 104t-90 266t90 266t251 104zM393 96q108 0 163 74t55 187t-55 187t-163 74t-163.5 -74t-55.5 -187t55.5 -187t163.5 -74z" />
    <glyph glyph-name="uni041F" unicode="&#x41f;" horiz-adv-x="762" 
d="M87 714h589v-714h-120v605h-349v-605h-120v714z" />
    <glyph glyph-name="uni0420" unicode="&#x420;" horiz-adv-x="701" 
d="M87 714h314q119 0 184.5 -58.5t65.5 -161.5q0 -106 -65.5 -164.5t-184.5 -58.5h-194v-271h-120v714zM207 377h176q146 0 146 116q0 57 -34 86t-112 29h-176v-231z" />
    <glyph glyph-name="uni0421" unicode="&#x421;" horiz-adv-x="728" 
d="M553 216h126q-18 -104 -95 -166.5t-196 -62.5q-158 0 -247 102.5t-89 267.5t89.5 267.5t247.5 102.5q113 0 187.5 -57t94.5 -154h-126q-34 102 -156 102q-105 0 -160 -74t-55 -187t54.5 -187t159.5 -74q66 0 108.5 31.5t56.5 88.5z" />
    <glyph glyph-name="uni0422" unicode="&#x422;" horiz-adv-x="611" 
d="M594 714v-106h-228v-608h-120v608h-229v106h577z" />
    <glyph glyph-name="uni0423" unicode="&#x423;" horiz-adv-x="662" 
d="M325 368h28l165 346h123l-342 -714h-122l102 214l-264 500h128z" />
    <glyph glyph-name="uni0424" unicode="&#x424;" horiz-adv-x="875" 
d="M495 654h11q149 0 237 -74t88 -213q0 -142 -87 -214.5t-238 -72.5h-11v-93h-116v93h-10q-152 0 -239 72.5t-87 214.5q0 139 88 213t238 74h10v83h116v-83zM369 184h10v366h-10q-98 0 -152 -45t-54 -138q0 -92 54 -137.5t152 -45.5zM495 184h11q97 0 151.5 46t54.5 137
t-54.5 137t-151.5 46h-11v-366z" />
    <glyph glyph-name="uni0425" unicode="&#x425;" horiz-adv-x="671" 
d="M516 0l-164 309h-34l-168 -309h-130l205 376l-176 338h126l144 -273h34l147 273h125l-179 -334l205 -380h-135z" />
    <glyph glyph-name="uni0426" unicode="&#x426;" horiz-adv-x="801" 
d="M657 -175v175h-570v714h120v-605h345v605h120v-605h103v-284h-118z" />
    <glyph glyph-name="uni0427" unicode="&#x427;" horiz-adv-x="692" 
d="M55 714h120v-204q0 -26 1 -39t9.5 -33.5t25 -31t49 -18.5t79.5 -8q75 0 147 18v316h120v-714h-120v289q-77 -18 -171 -18q-72 0 -123 14t-77 33t-40.5 53t-17 59.5t-2.5 67.5v216z" />
    <glyph glyph-name="uni0428" unicode="&#x428;" horiz-adv-x="1030" 
d="M457 109v605h117v-605h253v605h117v-714h-857v714h117v-605h253z" />
    <glyph glyph-name="uni0429" unicode="&#x429;" horiz-adv-x="1072" 
d="M929 -175v175h-842v714h117v-605h253v605h117v-605h253v605h117v-605h102v-284h-117z" />
    <glyph glyph-name="uni042A" unicode="&#x42a;" horiz-adv-x="802" 
d="M496 0h-309v605h-182v109h302v-258h189q123 0 189.5 -59.5t66.5 -167.5t-67 -168.5t-189 -60.5zM307 106h169q82 0 118 31.5t36 91.5t-36 90.5t-118 30.5h-169v-244z" />
    <glyph glyph-name="uni042B" unicode="&#x42b;" horiz-adv-x="928" 
d="M721 714h121v-714h-121v714zM207 106h151q82 0 118 31.5t36 91.5t-36 90.5t-118 30.5h-151v-244zM377 0h-290v714h120v-258h170q123 0 190 -59.5t67 -167.5t-67 -168.5t-190 -60.5z" />
    <glyph glyph-name="uni042C" unicode="&#x42c;" horiz-adv-x="702" 
d="M207 106h169q82 0 118 31.5t36 91.5t-36 90.5t-118 30.5h-169v-244zM396 0h-309v714h120v-258h189q122 0 189 -59.5t67 -167.5t-67 -168.5t-189 -60.5z" />
    <glyph glyph-name="uni042D" unicode="&#x42d;" horiz-adv-x="720" 
d="M43 203h126q14 -51 57 -79.5t108 -28.5q95 0 148 60t59 156h-299v107h298q-10 90 -62 145.5t-142 55.5q-124 0 -160 -96h-125q20 93 96 148.5t187 55.5q157 0 245.5 -102.5t88.5 -267.5q0 -164 -89 -267t-246 -103q-118 0 -196 59.5t-94 156.5z" />
    <glyph glyph-name="uni042E" unicode="&#x42e;" horiz-adv-x="1059" 
d="M673 727q158 0 246 -104t88 -266t-88 -266t-246 -104q-147 0 -233 90.5t-99 234.5h-134v-312h-120v714h120v-290h137q16 135 102.5 219t226.5 84zM673 96q103 0 157 74t54 187t-54 187t-157 74q-105 0 -158.5 -74t-53.5 -187t53.5 -187t158.5 -74z" />
    <glyph glyph-name="uni042F" unicode="&#x42f;" horiz-adv-x="716" 
d="M304 714h326v-714h-120v284h-166q-49 0 -63 2l-101 -286h-122l110 312q-107 54 -107 187q0 102 63.5 158.5t179.5 56.5zM510 388v220h-189q-74 0 -106 -27.5t-32 -82.5q0 -110 138 -110h189z" />
    <glyph glyph-name="uni0430" unicode="&#x430;" horiz-adv-x="572" 
d="M396 0v47h-24q-48 -60 -150 -60q-84 0 -133 48.5t-49 118.5q0 69 50 120t152 51h150v15q0 93 -107 93q-95 0 -102 -65h-112q4 71 61.5 112.5t148.5 41.5q103 0 161.5 -46t58.5 -138v-338h-105zM257 79q57 0 96 37t39 90v39h-130q-108 0 -108 -84q0 -39 27 -60.5t76 -21.5
z" />
    <glyph glyph-name="uni0431" unicode="&#x431;" horiz-adv-x="614" 
d="M325 498q110 0 175.5 -72t65.5 -184q0 -111 -70.5 -183t-187.5 -72q-124 0 -192 80t-68 231q0 70 7.5 125t28 109.5t62 89.5t103.5 45l133 22q28 4 38 11t12 27h97q-3 -53 -23.5 -85t-78.5 -41l-162 -26q-57 -9 -86 -45.5t-39 -101.5h24q54 70 161 70zM307 83
q70 0 107 47t37 115t-37 114t-107 46q-71 0 -108 -46t-37 -114t37 -115t108 -47z" />
    <glyph glyph-name="uni0432" unicode="&#x432;" horiz-adv-x="587" 
d="M454 281v-23q38 -10 61.5 -40.5t23.5 -77.5q0 -69 -46.5 -104.5t-133.5 -35.5h-281v509h272q77 0 119 -34t42 -95q0 -34 -16.5 -60.5t-40.5 -38.5zM189 86h149q87 0 87 67q0 68 -87 68h-149v-135zM189 423v-120h137q37 0 54.5 17t17.5 43q0 60 -72 60h-137z" />
    <glyph glyph-name="uni0433" unicode="&#x433;" horiz-adv-x="505" 
d="M78 0v509h397v-96h-284v-413h-113z" />
    <glyph glyph-name="uni0434" unicode="&#x434;" horiz-adv-x="668" 
d="M550 96h92v-239h-108v143h-408v-143h-108v239h72q53 127 53 270v143h407v-413zM437 96v317h-191v-48q0 -155 -46 -269h237z" />
    <glyph glyph-name="uni0435" unicode="&#x435;" horiz-adv-x="583" 
d="M536 283v-38h-376q5 -162 143 -162q87 0 111 65h115q-15 -74 -73 -117.5t-154 -43.5q-118 0 -186 75t-68 196q0 120 67.5 192t183.5 72q110 0 172.5 -67.5t64.5 -171.5zM298 432q-110 0 -133 -103h255q-6 45 -37 74t-85 29z" />
    <glyph glyph-name="uni0436" unicode="&#x436;" horiz-adv-x="829" 
d="M249 212l-96 -212h-116l118 262l-111 247h115l90 -201h113v201h106v-201h113l89 201h115l-110 -247l118 -262h-117l-95 212h-113v-212h-106v212h-113z" />
    <glyph glyph-name="uni0437" unicode="&#x437;" horiz-adv-x="550" 
d="M370 365q0 61 -99 61q-95 0 -109 -65h-105q8 77 67 119t153 42q95 0 150 -41t55 -103q0 -79 -52 -100v-24q68 -20 68 -110q0 -68 -59.5 -112.5t-160.5 -44.5q-109 0 -169.5 43.5t-70.5 121.5h106q20 -69 130 -69q111 0 111 67q0 32 -22 47.5t-74 15.5h-87v92h82
q86 0 86 60z" />
    <glyph glyph-name="uni0438" unicode="&#x438;" 
d="M206 0h-128v509h110v-336h24l209 336h131v-509h-110v336h-24z" />
    <glyph glyph-name="uni0439" unicode="&#x439;" 
d="M206 0h-128v509h110v-336h24l209 336h131v-509h-110v336h-24zM394 721h89q-4 -70 -48 -109t-121 -39t-121 39t-48 109h89q5 -72 80 -72t80 72z" />
    <glyph glyph-name="uni043A" unicode="&#x43a;" horiz-adv-x="586" 
d="M430 0l-108 213h-131v-213h-113v509h113v-200h133l102 200h116l-125 -245l132 -264h-119z" />
    <glyph glyph-name="uni043B" unicode="&#x43b;" horiz-adv-x="628" 
d="M23 0v107h18q53 0 75 42t22 154v206h412v-509h-113v413h-195v-113q0 -165 -47.5 -232.5t-153.5 -67.5h-18z" />
    <glyph glyph-name="uni043C" unicode="&#x43c;" horiz-adv-x="728" 
d="M78 0v509h161l114 -223h24l113 223h160v-509h-110v366h-24l-99 -191h-106l-99 191h-24v-366h-110z" />
    <glyph glyph-name="uni043D" unicode="&#x43d;" horiz-adv-x="628" 
d="M550 0h-113v213h-246v-213h-113v509h113v-200h246v200h113v-509z" />
    <glyph glyph-name="uni043E" unicode="&#x43e;" horiz-adv-x="610" 
d="M305 522q118 0 187.5 -74.5t69.5 -192.5q0 -119 -69.5 -193.5t-187.5 -74.5t-187.5 74.5t-69.5 193.5q0 118 69.5 192.5t187.5 74.5zM305 83q70 0 107 49.5t37 122.5q0 72 -37 121.5t-107 49.5t-107 -49.5t-37 -121.5q0 -73 37 -122.5t107 -49.5z" />
    <glyph glyph-name="uni043F" unicode="&#x43f;" horiz-adv-x="624" 
d="M546 0h-113v413h-242v-413h-113v509h468v-509z" />
    <glyph glyph-name="uni0440" unicode="&#x440;" horiz-adv-x="629" 
d="M329 426q-70 0 -105.5 -49t-35.5 -122q0 -74 35.5 -123t105.5 -49q67 0 103 47.5t36 124.5t-36 124t-103 47zM78 509h109v-49h24q50 62 150 62q101 0 160.5 -75t59.5 -192q0 -118 -59.5 -193t-160.5 -75q-99 0 -146 62h-24v-249h-113v709z" />
    <glyph glyph-name="uni0441" unicode="&#x441;" horiz-adv-x="568" 
d="M412 163h112q-12 -80 -72.5 -128t-151.5 -48q-117 0 -184.5 74.5t-67.5 193.5t67.5 193t184.5 74q92 0 150.5 -46t69.5 -122h-112q-25 72 -107 72q-71 0 -105.5 -48t-34.5 -122q0 -76 34.5 -124.5t105.5 -48.5q94 0 111 80z" />
    <glyph glyph-name="uni0442" unicode="&#x442;" horiz-adv-x="516" 
d="M30 413v96h456v-96h-171v-413h-113v413h-172z" />
    <glyph glyph-name="uni0443" unicode="&#x443;" horiz-adv-x="566" 
d="M244 -200h-115l105 250l-216 459h119l142 -307h26l129 307h116z" />
    <glyph glyph-name="uni0444" unicode="&#x444;" horiz-adv-x="749" 
d="M430 0v-200h-111v200h-12q-122 0 -190.5 70.5t-68.5 184.5q0 112 67.5 182t188.5 72h15v218h111v-218h15q121 -2 188.5 -71.5t67.5 -182.5q0 -118 -71.5 -186.5t-199.5 -68.5zM159 255q0 -70 38 -117t109 -47h13v327h-12q-72 0 -110 -46.5t-38 -116.5zM430 91h11
q72 0 110.5 47t38.5 117t-38.5 116.5t-110.5 46.5h-11v-327z" />
    <glyph glyph-name="uni0445" unicode="&#x445;" horiz-adv-x="578" 
d="M420 0l-112 200h-37l-115 -200h-121l152 261l-137 248h119l103 -188h37l106 188h116l-138 -245l150 -264h-123z" />
    <glyph glyph-name="uni0446" unicode="&#x446;" horiz-adv-x="659" 
d="M429 509h113v-413h91v-239h-107v143h-448v509h113v-413h238v413z" />
    <glyph glyph-name="uni0447" unicode="&#x447;" horiz-adv-x="577" 
d="M49 509h113v-147q0 -21 2.5 -33t12.5 -26.5t34 -21.5t63 -7q54 0 111 12v223h114v-509h-114v192q-67 -14 -143 -14q-64 0 -105 13.5t-59 40.5t-23.5 52t-5.5 63v162z" />
    <glyph glyph-name="uni0448" unicode="&#x448;" horiz-adv-x="835" 
d="M647 509h110v-509h-679v509h110v-413h175v413h109v-413h175v413z" />
    <glyph glyph-name="uni0449" unicode="&#x449;" horiz-adv-x="875" 
d="M647 509h110v-413h92v-239h-108v143h-663v509h110v-413h175v413h109v-413h175v413z" />
    <glyph glyph-name="uni044A" unicode="&#x44a;" horiz-adv-x="654" 
d="M18 413v96h262v-158h137q96 0 147.5 -45.5t51.5 -127.5q0 -83 -52 -130.5t-147 -47.5h-250v413h-149zM280 96h121q55 0 78 20.5t23 61.5t-23 61.5t-78 20.5h-121v-164z" />
    <glyph glyph-name="uni044B" unicode="&#x44b;" horiz-adv-x="786" 
d="M78 509h113v-158h127q96 0 147 -45.5t51 -127.5q0 -83 -51.5 -130.5t-146.5 -47.5h-240v509zM191 260v-164h111q55 0 78 20.5t23 61.5t-23 61.5t-78 20.5h-111zM595 509h113v-509h-113v509z" />
    <glyph glyph-name="uni044C" unicode="&#x44c;" horiz-adv-x="564" 
d="M191 509v-158h137q96 0 147 -45.5t51 -127.5q0 -83 -51.5 -130.5t-146.5 -47.5h-250v509h113zM191 96h121q55 0 78 20.5t23 61.5t-23 61.5t-78 20.5h-121v-164z" />
    <glyph glyph-name="uni044D" unicode="&#x44d;" horiz-adv-x="575" 
d="M47 155h108q17 -72 120 -72q61 0 96.5 35t40.5 94h-203v92h202q-6 56 -40.5 89t-95.5 33q-95 0 -115 -65h-107q14 73 74 117t149 44q115 0 183 -74t68 -193q0 -121 -68 -194.5t-184 -73.5q-90 0 -152 46.5t-76 121.5z" />
    <glyph glyph-name="uni044E" unicode="&#x44e;" horiz-adv-x="845" 
d="M543 522q114 0 184 -75.5t70 -191.5t-70 -192t-184 -76q-104 0 -171 63t-79 164h-104v-214h-111v509h111v-199h107q15 95 81 153.5t166 58.5zM543 83q69 0 105 49.5t36 122.5q0 72 -36 121.5t-105 49.5t-105.5 -49.5t-36.5 -121.5q0 -74 36 -123t106 -49z" />
    <glyph glyph-name="uni044F" unicode="&#x44f;" horiz-adv-x="587" 
d="M254 509h256v-509h-113v185h-120q-24 0 -36 1l-71 -186h-114l82 210q-77 41 -77 136q0 77 50 120t143 43zM397 273v144h-134q-90 0 -90 -72t90 -72h134z" />
    <glyph glyph-name="uni0451" unicode="&#x451;" horiz-adv-x="583" 
d="M536 283v-38h-376q5 -162 143 -162q87 0 111 65h115q-15 -74 -73 -117.5t-154 -43.5q-118 0 -186 75t-68 196q0 120 67.5 192t183.5 72q110 0 172.5 -67.5t64.5 -171.5zM298 432q-110 0 -133 -103h255q-6 45 -37 74t-85 29zM444 611h-100v109h100v-109zM255 611h-101v109
h101v-109z" />
    <glyph glyph-name="uni0452" unicode="&#x452;" 
d="M574 279v-300q0 -90 -48 -134.5t-132 -44.5h-64v96h46q85 0 85 90v271q0 125 -113 125q-59 0 -95.5 -43.5t-36.5 -105.5v-233h-113v571h-77v73h77v83h113v-83h191v-73h-191v-150h24q45 62 145 62q92 0 140.5 -53.5t48.5 -150.5z" />
    <glyph glyph-name="uni0453" unicode="&#x453;" horiz-adv-x="505" 
d="M412 727l-113 -145h-99l89 145h123zM78 0v509h397v-96h-284v-413h-113z" />
    <glyph glyph-name="uni0454" unicode="&#x454;" horiz-adv-x="572" 
d="M420 155h108q-14 -75 -76 -121.5t-152 -46.5q-116 0 -184 73.5t-68 194.5q0 119 68 193t183 74q89 0 149 -44t74 -117h-107q-20 65 -115 65q-61 0 -95.5 -33t-40.5 -89h202v-92h-203q5 -59 40.5 -94t96.5 -35q104 0 120 72z" />
    <glyph glyph-name="uni0455" unicode="&#x455;" horiz-adv-x="531" 
d="M476 373h-113q-9 55 -100 55q-92 0 -92 -53q0 -24 15.5 -34.5t49.5 -16.5l99 -16q155 -25 155 -158q0 -68 -57.5 -115.5t-160.5 -47.5q-108 0 -166 44t-67 123h113q13 -73 118 -73q107 0 107 66q0 29 -19 44.5t-64 23.5l-106 18q-130 22 -130 134q0 68 53 111.5t156 43.5
q91 0 146 -40.5t63 -108.5z" />
    <glyph glyph-name="uni0456" unicode="&#x456;" horiz-adv-x="272" 
d="M194 618h-116v109h116v-109zM192 509v-509h-113v509h113z" />
    <glyph glyph-name="uni0457" unicode="&#x457;" horiz-adv-x="272" 
d="M282 618h-100v109h100v-109zM93 618h-101v109h101v-109zM192 509v-509h-113v509h113z" />
    <glyph glyph-name="uni0458" unicode="&#x458;" horiz-adv-x="283" 
d="M205 618h-116v109h116v-109zM24 -200h-64v96h46q85 0 85 90v523h113v-530q0 -90 -48 -134.5t-132 -44.5z" />
    <glyph glyph-name="uni0459" unicode="&#x459;" horiz-adv-x="907" 
d="M23 0v107h18q53 0 75 42t22 154v206h403v-158h130q96 0 147 -45.5t51 -127.5q0 -83 -51.5 -130.5t-146.5 -47.5h-243v413h-186v-113q0 -165 -47.5 -232.5t-153.5 -67.5h-18zM541 96h114q55 0 78 20.5t23 61.5t-23 61.5t-78 20.5h-114v-164z" />
    <glyph glyph-name="uni045A" unicode="&#x45a;" horiz-adv-x="899" 
d="M533 509v-158h130q96 0 147 -45.5t51 -127.5q0 -83 -51.5 -130.5t-146.5 -47.5h-243v213h-229v-213h-113v509h113v-200h229v200h113zM533 96h114q55 0 78 20.5t23 61.5t-23 61.5t-78 20.5h-114v-164z" />
    <glyph glyph-name="uni045B" unicode="&#x45b;" horiz-adv-x="644" 
d="M573 0h-113v257q0 125 -113 125q-59 0 -95.5 -43.5t-36.5 -105.5v-233h-113v571h-77v73h77v83h113v-83h191v-73h-191v-150h24q45 62 145 62q92 0 140.5 -53.5t48.5 -150.5v-279z" />
    <glyph glyph-name="uni045C" unicode="&#x45c;" horiz-adv-x="579" 
d="M447 727l-113 -145h-99l89 145h123zM430 0l-108 213h-131v-213h-113v509h113v-200h133l102 200h116l-125 -245l132 -264h-119z" />
    <glyph glyph-name="uni045E" unicode="&#x45e;" horiz-adv-x="566" 
d="M244 -200h-115l105 250l-216 459h119l142 -307h26l129 307h116zM362 721h89q-4 -70 -48 -109t-121 -39t-121 39t-48 109h89q5 -72 80 -72t80 72z" />
    <glyph glyph-name="uni045F" unicode="&#x45f;" horiz-adv-x="620" 
d="M429 509h113v-509h-178v-143h-108v143h-178v509h113v-413h238v413z" />
    <glyph glyph-name="uni0490" unicode="&#x490;" horiz-adv-x="631" 
d="M207 605v-605h-120v714h380v150h122v-259h-382z" />
    <glyph glyph-name="uni0491" unicode="&#x491;" horiz-adv-x="494" 
d="M357 637h107v-224h-273v-413h-113v509h279v128z" />
    <glyph glyph-name="uni0492" unicode="&#x492;" horiz-adv-x="662" 
d="M25 307v94h94v313h501v-109h-381v-204h225v-94h-225v-307h-120v307h-94z" />
    <glyph glyph-name="uni0493" unicode="&#x493;" horiz-adv-x="524" 
d="M21 184v85h81v240h392v-96h-279v-144h180v-85h-180v-184h-113v184h-81z" />
    <glyph glyph-name="uni049A" unicode="&#x49a;" horiz-adv-x="747" 
d="M87 0v714h120v-292h193l137 292h124l-160 -347l119 -258h101v-284h-117v175h-58l-146 313h-193v-313h-120z" />
    <glyph glyph-name="uni049B" unicode="&#x49b;" horiz-adv-x="616" 
d="M431 0l-109 213h-131v-213h-113v509h113v-200h133l102 200h116l-125 -245l85 -168h88v-239h-108v143h-51z" />
    <glyph glyph-name="uni04A2" unicode="&#x4a2;" horiz-adv-x="812" 
d="M564 714h120v-605h102v-284h-117v175h-105v312h-357v-312h-120v714h120v-290h357v290z" />
    <glyph glyph-name="uni04A3" unicode="&#x4a3;" horiz-adv-x="667" 
d="M550 509v-413h91v-239h-107v143h-97v213h-246v-213h-113v509h113v-200h246v200h113z" />
    <glyph glyph-name="uni04AE" unicode="&#x4ae;" horiz-adv-x="661" 
d="M316 409h28l171 305h129l-254 -451v-263h-120v263l-254 451h129z" />
    <glyph glyph-name="uni04AF" unicode="&#x4af;" horiz-adv-x="561" 
d="M222 -49h-45l-155 558h115l121 -451h46l117 451h115l-157 -558h-44v-150h-113v150z" />
    <glyph glyph-name="uni04B0" unicode="&#x4b0;" horiz-adv-x="661" 
d="M316 409h28l171 305h129l-217 -385h146v-94h-183v-235h-120v235h-182v94h145l-217 385h129z" />
    <glyph glyph-name="uni04B1" unicode="&#x4b1;" horiz-adv-x="565" 
d="M71 -82v82h92l-141 509h115l121 -451h46l117 451h115l-143 -509h94v-82h-152v-117h-113v117h-151z" />
    <glyph glyph-name="uni04BA" unicode="&#x4ba;" horiz-adv-x="693" 
d="M638 0h-120v204q0 26 -1 39t-9.5 33.5t-25 31t-49 18.5t-79.5 8q-75 0 -147 -18v-316h-120v714h120v-289q76 18 171 18q72 0 123 -14t77 -33t40.5 -53t17 -59.5t2.5 -67.5v-216z" />
    <glyph glyph-name="uni04BB" unicode="&#x4bb;" horiz-adv-x="620" 
d="M549 0h-113v296q0 125 -113 125q-59 0 -95.5 -43.5t-36.5 -105.5v-272h-113v727h113v-267h24q45 62 145 62q92 0 140.5 -53.5t48.5 -150.5v-318z" />
    <glyph glyph-name="uni04D8" unicode="&#x4d8;" horiz-adv-x="765" 
d="M375 95q99 0 152.5 59.5t59.5 156.5h-413q2 -95 53.5 -155.5t147.5 -60.5zM373 727q161 0 250.5 -103.5t89.5 -266.5q0 -162 -88 -266t-247 -104q-155 0 -240.5 104.5t-85.5 283.5q0 19 2 43h532q-10 90 -64 145.5t-148 55.5q-132 0 -163 -96h-125q20 94 96.5 149
t190.5 55z" />
    <glyph glyph-name="uni04D9" unicode="&#x4d9;" horiz-adv-x="583" 
d="M48 253q0 24 1 35h373q-7 67 -43.5 102.5t-97.5 35.5q-90 0 -113 -65h-112q13 73 72.5 117t152.5 44q117 0 185.5 -76t68.5 -195t-67.5 -191.5t-182.5 -72.5q-111 0 -174 69.5t-63 196.5zM286 77q125 0 136 127h-263q1 -60 34 -93.5t93 -33.5z" />
    <glyph glyph-name="uni04E8" unicode="&#x4e8;" horiz-adv-x="785" 
d="M393 727q161 0 250.5 -104t89.5 -266t-89.5 -266t-250.5 -104t-251 104t-90 266t90 266t251 104zM393 96q98 0 152 59t64 156h-433q9 -96 64 -155.5t153 -59.5zM393 618q-95 0 -148.5 -54t-66.5 -146h429q-13 91 -66.5 145.5t-147.5 54.5z" />
    <glyph glyph-name="uni04E9" unicode="&#x4e9;" horiz-adv-x="610" 
d="M305 522q118 0 187.5 -74.5t69.5 -192.5q0 -119 -69.5 -193.5t-187.5 -74.5t-187.5 74.5t-69.5 193.5q0 118 69.5 192.5t187.5 74.5zM305 83q61 0 97.5 36t43.5 95h-282q7 -59 43.5 -95t97.5 -36zM305 426q-60 0 -96 -35.5t-45 -92.5h281q-7 57 -43.5 92.5t-96.5 35.5z
" />
    <glyph glyph-name="endash" unicode="&#x2013;" horiz-adv-x="619" 
d="M572 234h-526v91h526v-91z" />
    <glyph glyph-name="emdash" unicode="&#x2014;" horiz-adv-x="878" 
d="M831 234h-785v91h785v-91z" />
    <glyph glyph-name="quoteleft" unicode="&#x2018;" horiz-adv-x="276" 
d="M144 585h59v-134h-129v156l66 107h70l-66 -107v-22z" />
    <glyph glyph-name="quoteright" unicode="&#x2019;" horiz-adv-x="276" 
d="M132 580h-59v134h129v-156l-66 -107h-70l66 107v22z" />
    <glyph glyph-name="quotesinglbase" unicode="&#x201a;" horiz-adv-x="276" 
d="M132 0h-59v134h129v-156l-66 -107h-70l66 107v22z" />
    <glyph glyph-name="quotedblleft" unicode="&#x201c;" horiz-adv-x="475" 
d="M144 585h59v-134h-129v156l66 107h70l-66 -107v-22zM343 585h59v-134h-129v156l66 107h70l-66 -107v-22z" />
    <glyph glyph-name="quotedblright" unicode="&#x201d;" horiz-adv-x="475" 
d="M132 580h-59v134h129v-156l-66 -107h-70l66 107v22zM331 580h-59v134h129v-156l-66 -107h-70l66 107v22z" />
    <glyph glyph-name="quotedblbase" unicode="&#x201e;" horiz-adv-x="475" 
d="M132 0h-59v134h129v-156l-66 -107h-70l66 107v22zM331 0h-59v134h129v-156l-66 -107h-70l66 107v22z" />
    <glyph glyph-name="dagger" unicode="&#x2020;" horiz-adv-x="549" 
d="M223 419h-181v95h181v200h104v-200h181v-95h-181v-571h-104v571z" />
    <glyph glyph-name="daggerdbl" unicode="&#x2021;" horiz-adv-x="549" 
d="M223 419h-181v95h181v200h104v-200h181v-95h-181v-273h181v-95h-181v-203h-104v203h-181v95h181v273z" />
    <glyph glyph-name="bullet" unicode="&#x2022;" horiz-adv-x="422" 
d="M64 356q0 61 43 104t104 43t104 -43t43 -104t-43 -104t-104 -43t-104 43t-43 104z" />
    <glyph glyph-name="ellipsis" unicode="&#x2026;" horiz-adv-x="810" 
d="M202 0h-129v134h129v-134zM469 0h-129v134h129v-134zM736 0h-129v134h129v-134z" />
    <glyph glyph-name="perthousand" unicode="&#x2030;" horiz-adv-x="1253" 
d="M274 0h-90l424 700h89zM206 714q79 0 121.5 -53.5t42.5 -135.5q0 -84 -42 -136.5t-122 -52.5q-79 0 -121 52.5t-42 136.5q0 82 42.5 135.5t120.5 53.5zM206 409q41 0 62 31.5t21 84.5t-21 84.5t-62 31.5q-40 0 -61 -31.5t-21 -84.5t20.5 -84.5t61.5 -31.5zM674 365
q78 0 121 -53.5t43 -135.5q0 -84 -43 -136.5t-121 -52.5q-80 0 -122 52.5t-42 136.5q0 82 42.5 135.5t121.5 53.5zM674 60q41 0 62 31.5t21 84.5q0 52 -21 84t-62 32t-62 -31.5t-21 -84.5t21 -84.5t62 -31.5zM1046 365q78 0 121 -53.5t43 -135.5q0 -84 -43 -136.5
t-121 -52.5t-121 52.5t-43 136.5q0 82 43 135.5t121 53.5zM1046 60q41 0 62 31.5t21 84.5t-21 84.5t-62 31.5t-62 -31.5t-21 -84.5t21 -84.5t62 -31.5z" />
    <glyph glyph-name="guilsinglleft" unicode="&#x2039;" horiz-adv-x="380" 
d="M158 298v-23l167 -178h-123l-147 152v74l147 153h123z" />
    <glyph glyph-name="guilsinglright" unicode="&#x203a;" horiz-adv-x="380" 
d="M222 275v23l-167 178h123l147 -153v-74l-147 -152h-123z" />
    <glyph glyph-name="fraction" unicode="&#x2044;" horiz-adv-x="237" 
d="M-51 0h-89l424 700h88z" />
    <glyph glyph-name="Euro" unicode="&#x20ac;" horiz-adv-x="688" 
d="M418 319l-21 -63h-167q23 -165 160 -165q57 0 92 31t43 89h114q-14 -104 -80 -164t-170 -60q-112 0 -183.5 69t-91.5 200h-85l21 63h58q-3 33 0 67h-79l21 63h65q19 126 92.5 195.5t181.5 69.5q101 0 165.5 -55.5t79.5 -153.5h-116q-19 105 -129 105q-64 0 -104.5 -41.5
t-53.5 -119.5h232l-21 -63h-218q-2 -36 -1 -67h195z" />
    <glyph glyph-name="uni20B4" unicode="&#x20b4;" horiz-adv-x="671" 
d="M35 257v63h601v-63h-415q-9 -24 -9 -52q0 -55 37.5 -84.5t98.5 -29.5q118 0 140 96h117q-15 -94 -80 -147t-177 -53q-118 0 -185 61t-67 152q0 30 9 57h-70zM35 450h413q17 28 17 59q0 49 -32.5 75t-85.5 26q-105 0 -123 -85h-115q10 87 74 138t165 51q107 0 169.5 -57.5
t62.5 -141.5q0 -34 -14 -65h70v-63h-601v63z" />
    <glyph glyph-name="uni20B8" unicode="&#x20b8;" horiz-adv-x="538" 
d="M17 507v63h504v-63h-194v-507h-116v507h-194zM17 637v63h504v-63h-504z" />
    <glyph glyph-name="uni20BD" unicode="&#x20bd;" horiz-adv-x="696" 
d="M36 271v100h95v329h273q116 0 179 -55.5t63 -157.5t-63 -159t-179 -57h-157v-67h209v-63h-209v-141h-116v141h-95v63h95v67h-95zM247 371h140q143 0 143 116q0 114 -143 114h-140v-230z" />
    <glyph glyph-name="uni2116" unicode="&#x2116;" horiz-adv-x="1155" 
d="M565 700h110v-700h-164l-290 529h-24v-529h-110v700h164l290 -529h24v529zM1098 206h-328v71h328v-71zM933 714q79 0 121.5 -53.5t42.5 -135.5q0 -84 -42 -136.5t-122 -52.5q-79 0 -121 52.5t-42 136.5q0 82 42.5 135.5t120.5 53.5zM933 409q41 0 62 31.5t21 84.5
t-21 84.5t-62 31.5q-40 0 -61 -31.5t-21 -84.5t20.5 -84.5t61.5 -31.5z" />
    <glyph glyph-name="trademark" unicode="&#x2122;" horiz-adv-x="856" 
d="M523 714l72 -161h14l70 161h116v-379h-70v294h-14l-73 -163h-73l-74 163h-13v-294h-71v379h116zM343 714v-67h-123v-312h-74v312h-123v67h320z" />
    <glyph glyph-name="Omega" unicode="&#x2126;" horiz-adv-x="764" 
d="M588 121v-23h123v-98h-284v100q163 105 163 278q0 111 -57 175.5t-151 64.5t-151 -64.5t-57 -175.5q0 -173 163 -278v-100h-284v98h124v23q-125 104 -125 266q0 150 89.5 245t240.5 95q152 0 241 -94.5t89 -245.5q0 -159 -124 -266z" />
    <glyph glyph-name="arrowleft" unicode="&#x2190;" horiz-adv-x="814" 
d="M299 509h135l-183 -182v-24h507v-98h-507v-24l183 -181h-135l-255 254z" />
    <glyph glyph-name="arrowup" unicode="&#x2191;" horiz-adv-x="675" 
d="M83 324v134l255 256l254 -255v-135l-181 183h-24v-507h-98v507h-24z" />
    <glyph glyph-name="arrowright" unicode="&#x2192;" horiz-adv-x="814" 
d="M380 509h135l255 -255l-255 -254h-135l183 181v24h-507v98h507v24z" />
    <glyph glyph-name="arrowdown" unicode="&#x2193;" horiz-adv-x="675" 
d="M592 390v-134l-255 -256l-254 255v135l181 -183h24v507h98v-507h24z" />
    <glyph glyph-name="uni2196" unicode="&#x2196;" horiz-adv-x="706" 
d="M178 259l-95 94v361h360l96 -94h-258l-17 -17l359 -358l-69 -70l-359 359l-17 -17v-258z" />
    <glyph glyph-name="uni2197" unicode="&#x2197;" horiz-adv-x="706" 
d="M623 353l-95 -94v258l-17 17l-359 -359l-69 70l359 358l-17 17h-258l96 94h360v-361z" />
    <glyph glyph-name="uni2198" unicode="&#x2198;" horiz-adv-x="706" 
d="M83 361l95 94v-258l17 -17l359 359l69 -70l-359 -358l17 -17h258l-96 -94h-360v361z" />
    <glyph glyph-name="uni2199" unicode="&#x2199;" horiz-adv-x="706" 
d="M528 455l95 -94v-361h-360l-96 94h258l17 17l-359 358l69 70l359 -359l17 17v258z" />
    <glyph glyph-name="partialdiff" unicode="&#x2202;" horiz-adv-x="604" 
d="M302 83q70 0 105.5 44t35.5 113t-35.5 113.5t-105.5 44.5q-71 0 -106.5 -44.5t-35.5 -113.5q0 -68 36 -112.5t106 -44.5zM154 727h136q35 -24 68 -52.5t70.5 -73t64.5 -93t45 -113t18 -133.5q0 -123 -66 -199t-190 -76q-114 0 -183 72.5t-69 181.5q0 108 63 178.5
t160 70.5q80 0 118 -36h24q-59 135 -259 273z" />
    <glyph glyph-name="increment" unicode="&#x2206;" horiz-adv-x="646" 
d="M386 700l219 -579v-121h-565v121l220 579h126zM504 97v24l-169 450h-24l-169 -450v-24h362z" />
    <glyph glyph-name="product" unicode="&#x220f;" horiz-adv-x="610" 
d="M487 -200h-101v820h-162v-820h-101v820h-96v94h556v-94h-96v-820z" />
    <glyph glyph-name="summation" unicode="&#x2211;" horiz-adv-x="562" 
d="M174 104h362v-104h-500v128l188 217v24l-180 217v128h474v-104h-337v-24l168 -207v-45l-175 -206v-24z" />
    <glyph glyph-name="minus" unicode="&#x2212;" horiz-adv-x="678" 
d="M595 239h-512v96h512v-96z" />
    <glyph glyph-name="radical" unicode="&#x221a;" horiz-adv-x="655" 
d="M33 509h98l115 -391h24l184 582h174v-87h-104l-197 -613h-140z" />
    <glyph glyph-name="infinity" unicode="&#x221e;" horiz-adv-x="923" 
d="M449 324h25q24 25 32 33t33 30t41.5 30.5t43 17.5t52.5 9q73 0 118.5 -44t45.5 -118t-45.5 -118t-118.5 -44q-42 0 -83 21t-65 43t-54 56h-25q-30 -34 -54 -56t-65 -43t-83 -21q-73 0 -118.5 44t-45.5 118t45.5 118t118.5 44q26 0 52.5 -9t43 -17.5t41.5 -30.5t33 -30
t32 -33zM418 282q-28 34 -47.5 53.5t-53.5 38.5t-67 19q-48 0 -80 -29.5t-32 -81.5t32 -81.5t80 -29.5t88 30.5t80 80.5zM505 282q40 -50 80 -80.5t88 -30.5t80 29.5t32 81.5t-32 81.5t-80 29.5q-33 0 -67 -19t-53.5 -38.5t-47.5 -53.5z" />
    <glyph glyph-name="integral" unicode="&#x222b;" horiz-adv-x="497" 
d="M441 727h44v-96h-41q-50 0 -75.5 -27.5t-34.5 -83.5l-93 -526q-18 -103 -71.5 -148.5t-146.5 -45.5h-44v96h40q51 0 76.5 27.5t34.5 83.5l92 526q18 103 72 148.5t147 45.5z" />
    <glyph glyph-name="approxequal" unicode="&#x2248;" horiz-adv-x="671" 
d="M506 473h82q0 -163 -137 -163q-40 0 -83.5 25t-82 49.5t-66.5 24.5q-54 0 -54 -75h-82q0 163 136 163q32 0 67 -15.5t59.5 -34t53.5 -34t52 -15.5q55 0 55 75zM506 256h82q0 -163 -137 -163q-32 0 -66.5 15.5t-59 34t-54 34t-52.5 15.5q-54 0 -54 -75h-82q0 163 136 163
q32 0 67 -15.5t59.5 -34t53.5 -34t52 -15.5q55 0 55 75z" />
    <glyph glyph-name="notequal" unicode="&#x2260;" horiz-adv-x="676" 
d="M593 233v-97h-301l-77 -120h-102l77 120h-107v97h169l69 107h-238v97h301l77 120h102l-77 -120h107v-97h-170l-69 -107h239z" />
    <glyph glyph-name="lessequal" unicode="&#x2264;" horiz-adv-x="677" 
d="M83 0v96h511v-96h-511zM594 135l-511 156v110l511 156v-99l-355 -100v-24l355 -100v-99z" />
    <glyph glyph-name="greaterequal" unicode="&#x2265;" horiz-adv-x="677" 
d="M594 291l-511 -156v99l355 100v24l-355 100v99l511 -156v-110zM594 96v-96h-511v96h511z" />
    <glyph glyph-name="lozenge" unicode="&#x25ca;" horiz-adv-x="554" 
d="M330 714l169 -357l-169 -357h-105l-170 357l170 357h105zM289 128l101 229l-101 229h-24l-101 -229l101 -229h24z" />
    <glyph glyph-name="commaaccent" unicode="&#xf6c3;" horiz-adv-x="201" 
d="M105 -226h-68l62 61v20h-53v89h120v-109z" />
    <glyph glyph-name="uniFEFF" unicode="&#xfeff;" horiz-adv-x="0" 
 />
    <glyph glyph-name="eight.numr" horiz-adv-x="377" 
d="M189 659q-28 0 -45 -13.5t-17 -35.5t17 -35.5t45 -13.5q26 0 43.5 13.5t17.5 35.5t-17.5 35.5t-43.5 13.5zM189 391q34 0 53.5 16t19.5 41q0 24 -19.5 39.5t-53.5 15.5t-54 -15.5t-20 -39.5q0 -25 20 -41t54 -16zM94 528v15q-42 24 -42 74q0 46 37.5 75t99.5 29t99 -29
t37 -75q0 -51 -42 -74v-15q57 -25 57 -89q0 -48 -41 -80.5t-111 -32.5t-110.5 32.5t-40.5 80.5q0 64 57 89z" />
    <glyph glyph-name="nine.numr" horiz-adv-x="373" 
d="M167 459q-55 0 -92.5 35.5t-37.5 90.5q0 58 39 97t104 39q156 0 156 -189q0 -93 -39.5 -149.5t-119.5 -56.5q-52 0 -87 29.5t-43 75.5h77q10 -40 55 -40q71 0 82 96h-17q-28 -28 -77 -28zM182 655q-30 0 -48.5 -18t-18.5 -50q0 -31 19 -48t49 -17t49 17t19 48
q0 32 -19.5 50t-49.5 18z" />
    <glyph glyph-name="zero.dnom" horiz-adv-x="384" 
d="M347 190q0 -98 -42.5 -147.5t-112.5 -49.5q-71 0 -113 49.5t-42 147.5q0 99 42 148.5t113 49.5t113 -49t42 -149zM192 63q39 0 58 35.5t19 91.5t-19 92t-58 36q-77 0 -77 -128q0 -127 77 -127z" />
    <glyph glyph-name="one.dnom" horiz-adv-x="333" 
d="M208 68h88v-68h-259v68h92v227h-18l-74 -44v75l93 55h78v-313z" />
    <glyph glyph-name="two.dnom" horiz-adv-x="366" 
d="M159 68h170v-68h-292v84l115 77q40 26 63 50t23 52q0 27 -16 41t-43 14q-63 0 -64 -60h-78q2 64 41 97t103 33q62 0 99 -31.5t37 -90.5q0 -69 -76 -124l-82 -57v-17z" />
    <glyph glyph-name="three.dnom" horiz-adv-x="369" 
d="M237 250v-16q40 -6 67 -34.5t27 -76.5q0 -59 -41.5 -94.5t-106.5 -35.5q-66 0 -107 36t-43 93h77q3 -28 23 -43.5t50 -15.5q33 0 51.5 16t18.5 45t-18.5 45.5t-50.5 16.5q-25 0 -37 -4v65l68 49v17h-155v68h254v-80z" />
    <glyph glyph-name="seven.numr" horiz-adv-x="343" 
d="M37 714h269v-79l-158 -302h-82l153 292v21h-182v68z" />
    <glyph glyph-name="five.dnom" horiz-adv-x="368" 
d="M203 262q56 0 92 -37.5t36 -92.5q0 -62 -40.5 -100.5t-104.5 -38.5q-69 0 -107 35.5t-42 92.5h78q7 -58 69 -58q31 0 49.5 18t18.5 50q0 31 -18 49t-48 18q-44 0 -68 -30h-72l20 213h242v-68h-182l-6 -70h20q21 19 63 19z" />
    <glyph glyph-name="six.dnom" horiz-adv-x="373" 
d="M206 255q55 0 92.5 -35.5t37.5 -90.5q0 -58 -39 -97t-104 -39q-156 0 -156 189q0 93 39.5 149.5t119.5 56.5q52 0 87 -29.5t43 -75.5h-77q-10 40 -55 40q-34 0 -55.5 -24.5t-26.5 -71.5h17q28 28 77 28zM191 59q30 0 48.5 18t18.5 50q0 31 -19 48t-49 17t-49 -17t-19 -48
q0 -32 19.5 -50t49.5 -18z" />
    <glyph glyph-name="seven.dnom" horiz-adv-x="343" 
d="M37 381h269v-79l-158 -302h-82l153 292v21h-182v68z" />
    <glyph glyph-name="eight.dnom" horiz-adv-x="377" 
d="M189 326q-28 0 -45 -13.5t-17 -35.5t17 -35.5t45 -13.5q26 0 43.5 13.5t17.5 35.5t-17.5 35.5t-43.5 13.5zM189 58q34 0 53.5 16t19.5 41q0 24 -19.5 39.5t-53.5 15.5t-54 -15.5t-20 -39.5q0 -25 20 -41t54 -16zM94 195v15q-42 24 -42 74q0 46 37.5 75t99.5 29t99 -29
t37 -75q0 -51 -42 -74v-15q57 -25 57 -89q0 -48 -41 -80.5t-111 -32.5t-110.5 32.5t-40.5 80.5q0 64 57 89z" />
    <glyph glyph-name="nine.dnom" horiz-adv-x="373" 
d="M167 126q-55 0 -92.5 35.5t-37.5 90.5q0 58 39 97t104 39q156 0 156 -189q0 -93 -39.5 -149.5t-119.5 -56.5q-52 0 -87 29.5t-43 75.5h77q10 -40 55 -40q71 0 82 96h-17q-28 -28 -77 -28zM182 322q-30 0 -48.5 -18t-18.5 -50q0 -31 19 -48t49 -17t49 17t19 48
q0 32 -19.5 50t-49.5 18z" />
    <glyph glyph-name="zero.onum" horiz-adv-x="616" 
d="M309 522q114 0 188 -73.5t74 -193.5t-74 -194t-188 -74q-115 0 -189 73.5t-74 194.5t74 194t189 73zM309 87q71 0 109.5 45.5t38.5 122.5t-38.5 122t-109.5 45q-73 0 -111.5 -45t-38.5 -122q0 -76 39 -122t111 -46z" />
    <glyph glyph-name="one.onum" horiz-adv-x="486" 
d="M60 0v100h142v295h-24l-118 -77v114l118 77h138v-409h129v-100h-385z" />
    <glyph glyph-name="two.onum" horiz-adv-x="552" 
d="M508 100v-100h-463v119l187 88q77 35 109.5 63.5t32.5 69.5q0 37 -27.5 59.5t-76.5 22.5q-56 0 -85 -26.5t-28 -79.5h-114q0 90 60.5 148t168.5 58q103 0 159 -51t56 -122q0 -109 -112 -163l-126 -63v-23h259z" />
    <glyph glyph-name="three.onum" horiz-adv-x="584" 
d="M73 509h430v-122l-154 -124v-23q82 -4 135 -58t53 -147q0 -109 -70.5 -172t-184.5 -63q-111 0 -181.5 61.5t-74.5 155.5h114q5 -53 44.5 -85t97.5 -32q64 0 103 36.5t39 98.5q0 61 -37.5 96.5t-104.5 35.5q-36 0 -62 -6v104l152 122v24h-299v98z" />
    <glyph glyph-name="four.onum" horiz-adv-x="623" 
d="M489 100h92v-100h-92v-191h-112v191h-340v124l308 385h144v-409zM148 100h233v289h-24l-209 -265v-24z" />
    <glyph glyph-name="five.onum" horiz-adv-x="610" 
d="M335 285q100 0 162 -65.5t62 -167.5q0 -113 -69.5 -182.5t-179.5 -69.5q-116 0 -182 60.5t-72 156.5h113q7 -56 43 -86.5t94 -30.5q63 0 101.5 40.5t38.5 107.5q0 66 -38.5 105.5t-99.5 39.5q-84 0 -125 -60h-111l31 376h416v-98h-326l-13 -171h23q52 45 132 45z" />
    <glyph glyph-name="six.onum" horiz-adv-x="607" 
d="M342 460q96 0 159.5 -64t63.5 -165q0 -103 -67 -173.5t-179 -70.5q-124 0 -195 83t-71 264q0 171 68.5 275.5t204.5 104.5q90 0 149.5 -49.5t71.5 -126.5h-113q-25 79 -110 79q-72 0 -114 -56.5t-47 -161.5h24q56 61 155 61zM317 85q60 0 97.5 37t37.5 105q0 67 -38 103
t-98 36t-98 -36.5t-38 -101.5q0 -66 38.5 -104.5t98.5 -38.5z" />
    <glyph glyph-name="seven.onum" horiz-adv-x="561" 
d="M510 385l-291 -576h-119l291 577v23h-342v100h461v-124z" />
    <glyph glyph-name="eight.onum" horiz-adv-x="620" 
d="M464 382v-24q42 -17 74.5 -59t32.5 -105q0 -89 -70.5 -148t-189.5 -59q-120 0 -190.5 59t-70.5 148q0 64 32.5 106t74.5 58v24q-33 17 -59 53.5t-26 90.5q0 83 65.5 135.5t173.5 52.5q107 0 172.5 -52.5t65.5 -135.5q0 -54 -25.5 -90t-59.5 -54zM311 622q-55 0 -92 -29
t-37 -76q0 -46 37 -75.5t92 -29.5t91.5 29t36.5 76t-36.5 76t-91.5 29zM311 85q69 0 108 32.5t39 85.5t-39.5 86t-107.5 33q-70 0 -109 -33t-39 -86t39 -85.5t109 -32.5z" />
    <glyph glyph-name="nine.onum" horiz-adv-x="607" 
d="M263 49q-95 0 -158.5 64t-63.5 165q0 105 67 174.5t178 69.5q123 0 194.5 -83t71.5 -264q0 -171 -68 -273t-204 -102q-91 0 -150 49.5t-71 127.5h113q21 -79 109 -79q73 0 115 54t47 158h-24q-54 -61 -156 -61zM289 424q-61 0 -98 -37t-37 -105q0 -67 38 -103t98 -36
q59 0 97 36.5t38 101.5q0 66 -38.5 104.5t-97.5 38.5z" />
    <glyph glyph-name="zero.tnum" 
d="M314 714q121 0 194 -91t73 -273t-73 -272.5t-194 -90.5q-120 0 -192.5 90.5t-72.5 272.5q0 183 72.5 273.5t192.5 90.5zM166 350q0 -108 27 -171l198 406q-31 25 -77 25q-53 0 -87 -36.5t-47.5 -92t-13.5 -131.5zM314 91q78 0 114 71.5t36 187.5q0 101 -28 170l-198 -405
q34 -24 76 -24z" />
    <glyph glyph-name="one.tnum" 
d="M63 0v102h216v479h-24l-144 -93v117l145 95h139v-598h175v-102h-507z" />
    <glyph glyph-name="two.tnum" 
d="M180 498h-116q6 105 72 160.5t173 55.5q105 0 170 -57.5t65 -161.5q0 -124 -142 -238l-162 -131v-24h324v-102h-499v125l251 198q111 88 111 171q0 56 -32.5 86t-88.5 30q-53 0 -86.5 -28t-39.5 -84z" />
    <glyph glyph-name="three.tnum" 
d="M97 700h430v-123l-152 -123v-25q82 -4 134.5 -58.5t52.5 -148.5q0 -109 -71.5 -172t-185.5 -63q-111 0 -181.5 62t-74.5 156h117q5 -53 43.5 -83.5t95.5 -30.5q65 0 103 35t38 96t-36.5 96.5t-103.5 35.5q-38 0 -63 -6v106l151 123v24h-297v99z" />
    <glyph glyph-name="four.tnum" 
d="M497 259h91v-102h-91v-157h-113v157h-340v126l308 417h145v-441zM159 259h228v309h-24l-204 -285v-24z" />
    <glyph glyph-name="five.tnum" 
d="M346 474q99 0 162 -66t63 -169q0 -113 -69.5 -182.5t-180.5 -69.5q-115 0 -182 60.5t-73 157.5h116q14 -114 135 -114q63 0 100 39t37 106q0 66 -37 105t-98 39q-83 0 -125 -59h-112l31 379h417v-99h-325l-13 -171h24q55 44 130 44z" />
    <glyph glyph-name="six.tnum" 
d="M349 461q96 0 160.5 -64.5t64.5 -165.5q0 -103 -67.5 -173.5t-180.5 -70.5q-124 0 -196 83t-72 264q0 111 28.5 194.5t91.5 134.5t155 51q90 0 150 -49.5t72 -126.5h-115q-24 77 -109 77q-72 0 -114 -55t-47 -160h24q56 61 155 61zM324 87q59 0 96 36.5t37 103.5t-37 102
t-97 35q-59 0 -96.5 -35.5t-37.5 -100.5q0 -66 38 -103.5t97 -37.5z" />
    <glyph glyph-name="seven.tnum" 
d="M540 576l-291 -576h-122l293 575v24h-342v101h462v-124z" />
    <glyph glyph-name="eight.tnum" 
d="M471 382v-24q42 -17 74 -58.5t32 -105.5q0 -89 -70.5 -148t-190.5 -59q-121 0 -191.5 59t-70.5 148q0 64 32 105.5t74 58.5v24q-33 16 -58.5 53t-25.5 91q0 83 66 135.5t174 52.5t173.5 -52.5t65.5 -135.5q0 -54 -25.5 -90t-58.5 -54zM316 620q-55 0 -91 -28t-36 -75
t36 -75.5t91 -28.5t90.5 28.5t35.5 75.5t-35.5 75t-90.5 28zM316 87q68 0 107 32.5t39 85.5t-39 85.5t-107 32.5q-70 0 -108 -32.5t-38 -85.5t38 -85.5t108 -32.5z" />
    <glyph glyph-name="nine.tnum" 
d="M281 240q-96 0 -160.5 64.5t-64.5 165.5q0 103 67.5 173.5t180.5 70.5q124 0 196 -83t72 -264q0 -111 -28.5 -194.5t-91.5 -134.5t-155 -51q-90 0 -150 49.5t-72 126.5h115q24 -77 109 -77q72 0 114 55t47 160h-24q-56 -61 -155 -61zM306 614q-59 0 -96 -36.5t-37 -103.5
t37 -102t97 -35q59 0 96.5 35.5t37.5 100.5q0 66 -38 103.5t-97 37.5z" />
    <glyph glyph-name="dollar.tnum" 
d="M284 798h63v-85q88 -10 144.5 -62.5t67.5 -134.5h-114q-20 83 -98 95v-201l52 -12q179 -41 179 -198q0 -86 -59.5 -146.5t-171.5 -66.5v-85h-63v87q-104 10 -162.5 66.5t-70.5 151.5h115q18 -99 118 -117v229l-47 10q-163 34 -163 183q0 80 55 137t155 65v84zM347 306
v-218q52 4 84 32t32 75q0 46 -22 69.5t-69 35.5zM284 422v191q-44 -4 -69.5 -28.5t-25.5 -67.5q0 -40 22 -62.5t73 -32.5z" />
    <glyph glyph-name="Euro.tnum" 
d="M380 319l-21 -63h-155q22 -165 152 -165q55 0 87.5 32t41.5 88h114q-16 -105 -78.5 -164.5t-164.5 -59.5q-109 0 -179 69t-88 200h-74l21 63h46q-2 41 1 67h-68l21 63h53q20 127 90 196t176 69q99 0 159.5 -55.5t78.5 -153.5h-116q-18 105 -121 105q-126 0 -151 -161h220
l-21 -63h-206q-5 -34 0 -67h182z" />
    <glyph glyph-name="sterling.tnum" 
d="M219 102h369v-102h-543v102h18q65 0 65 89v88h-83v93h83v119q0 103 57.5 163t160.5 60q100 0 155.5 -56t58.5 -153h-116q-5 105 -97 105q-102 0 -102 -115v-123h211v-93h-211v-76q0 -54 -26 -77v-24z" />
    <glyph glyph-name="yen.tnum" 
d="M98 310v63h88l-157 327h118l153 -327h28l153 327h119l-157 -327h87v-63h-117l-33 -67h150v-63h-158v-180h-116v180h-158v63h151l-33 67h-118z" />
    <glyph glyph-name="uni20BD.tnum" 
d="M118 700h243q116 0 179 -55.5t63 -157.5t-63 -159t-179 -57h-127v-67h198v-63h-198v-141h-116v141h-82v63h82v67h-82v100h82v329zM234 371h112q141 0 141 117q0 56 -33 84.5t-108 28.5h-112v-230z" />
    <glyph glyph-name="uni20B4.tnum" 
d="M38 320h554v-63h-384q-9 -21 -9 -52q0 -54 34.5 -84t89.5 -30q107 0 130 96h118q-15 -93 -79 -146.5t-170 -53.5q-113 0 -176 60.5t-63 149.5q0 36 9 60h-54v63zM38 450h378q18 25 18 60q0 47 -28.5 73.5t-76.5 26.5q-95 0 -115 -85h-115q10 85 72.5 137t157.5 52
q102 0 161 -57.5t59 -142.5q0 -37 -13 -64h56v-63h-554v63z" />
    <glyph glyph-name="uni20B8.tnum" 
d="M63 507v63h504v-63h-195v-507h-115v507h-194zM63 637v63h504v-63h-504z" />
    <glyph glyph-name="cent.tnum" horiz-adv-x="578" 
d="M417 163h112q-11 -75 -64.5 -122t-136.5 -53v-68h-54v69q-103 8 -162 81t-59 185q0 110 59 182.5t162 82.5v69h54v-68q82 -5 133.5 -50.5t63.5 -116.5h-112q-20 64 -85 71v-341q71 7 89 79zM166 256q0 -67 26.5 -114t81.5 -56v337q-55 -9 -81.5 -55t-26.5 -112z" />
    <glyph glyph-name="circumflex.cap" horiz-adv-x="399" 
d="M251 896l108 -129h-95l-54 62h-24l-53 -62h-93l108 129h103z" />
    <glyph glyph-name="dieresis.cap" horiz-adv-x="370" 
d="M330 794h-100v102h100v-102zM141 794h-101v102h101v-102z" />
    <glyph glyph-name="acute.cap" horiz-adv-x="297" 
d="M257 896l-113 -129h-102l88 129h127z" />
    <glyph glyph-name="grave.cap" horiz-adv-x="297" 
d="M154 767l-112 129h126l89 -129h-103z" />
    <glyph glyph-name="ring.cap" horiz-adv-x="307" 
d="M154 968q47 0 80 -33t33 -79t-33 -79t-80 -33t-80.5 33t-33.5 79t33.5 79t80.5 33zM154 802q23 0 38.5 15.5t15.5 38.5t-15.5 38.5t-38.5 15.5t-38.5 -15.5t-15.5 -38.5t15.5 -38.5t38.5 -15.5z" />
    <glyph glyph-name="caron.cap" horiz-adv-x="399" 
d="M148 767l-108 129h95l53 -62h24l54 62h93l-108 -129h-103z" />
    <glyph glyph-name="dotaccent.cap" horiz-adv-x="196" 
d="M156 794h-116v102h116v-102z" />
    <glyph glyph-name="breve.cap" horiz-adv-x="363" 
d="M251 896h72q-1 -61 -37.5 -95t-104.5 -34q-66 0 -102.5 34t-38.5 95h73q0 -63 68 -63t70 63z" />
    <glyph glyph-name="hungarumlaut.cap" horiz-adv-x="442" 
d="M232 896l-100 -129h-92l77 129h115zM402 896l-101 -129h-91l78 129h114z" />
    <glyph glyph-name="tilde.cap" horiz-adv-x="411" 
d="M311 896h60q0 -129 -99 -129q-35 0 -78 29.5t-60 29.5q-35 0 -35 -59h-59q0 129 98 129q35 0 78 -29t61 -29q34 0 34 58z" />
    <glyph glyph-name="macron.cap" horiz-adv-x="372" 
d="M332 802h-292v73h292v-73z" />
    <glyph glyph-name="cyrbreve" horiz-adv-x="438" 
d="M299 721h89q-4 -70 -48 -109t-121 -39t-121 39t-48 109h89q5 -72 80 -72t80 72z" />
    <glyph glyph-name="cyrbreve.cap" horiz-adv-x="443" 
d="M312 904h91q-4 -72 -52.5 -113t-129.5 -41q-79 0 -128 41t-53 113h92q2 -34 26 -54.5t63 -20.5t63.5 20.5t27.5 54.5z" />
    <glyph glyph-name="hyphen.case" horiz-adv-x="380" 
d="M335 315h-288v99h288v-99z" />
    <glyph glyph-name="endash.case" horiz-adv-x="619" 
d="M572 319h-526v91h526v-91z" />
    <glyph glyph-name="emdash.case" horiz-adv-x="878" 
d="M831 319h-785v91h785v-91z" />
    <glyph glyph-name="emdash.ss02.case" horiz-adv-x="1444" 
d="M1398 319h-1352v91h1352v-91z" />
    <glyph glyph-name="bracketleft.case" horiz-adv-x="353" 
d="M297 -93h-224v900h224v-86h-123v-728h123v-86z" />
    <glyph glyph-name="bracketright.case" horiz-adv-x="353" 
d="M280 -93h-224v86h123v728h-123v86h224v-900z" />
    <glyph glyph-name="braceleft.case" horiz-adv-x="409" 
d="M188 369v-24q61 -19 61 -109v-141q0 -53 21.5 -77.5t67.5 -24.5h34v-86h-48q-81 0 -128.5 45.5t-47.5 125.5v139q0 48 -15 71.5t-52 23.5h-19v90h19q37 0 52 23.5t15 71.5v139q0 80 47.5 125.5t128.5 45.5h48v-86h-34q-46 0 -67.5 -24.5t-21.5 -77.5v-141q0 -90 -61 -109
z" />
    <glyph glyph-name="braceright.case" horiz-adv-x="409" 
d="M221 345v24q-61 19 -61 109v141q0 53 -21.5 77.5t-67.5 24.5h-34v86h48q81 0 128.5 -45.5t47.5 -125.5v-139q0 -48 15 -71.5t52 -23.5h19v-90h-19q-37 0 -52 -23.5t-15 -71.5v-139q0 -80 -47.5 -125.5t-128.5 -45.5h-48v86h34q46 0 67.5 24.5t21.5 77.5v141q0 90 61 109z
" />
    <glyph glyph-name="parenleft.case" horiz-adv-x="310" 
d="M147 360q0 -242 159 -453h-102q-158 188 -158 453q0 258 153 447h102q-154 -208 -154 -447z" />
    <glyph glyph-name="parenright.case" horiz-adv-x="310" 
d="M163 360q0 239 -154 447h102q153 -189 153 -447q0 -265 -158 -453h-102q159 211 159 453z" />
    <glyph glyph-name="guillemotright.case" horiz-adv-x="611" 
d="M453 341v23l-167 178h123l147 -153v-74l-147 -152h-123zM222 341v23l-167 178h123l147 -153v-74l-147 -152h-123z" />
    <glyph glyph-name="guillemotleft.case" horiz-adv-x="611" 
d="M158 364v-23l167 -178h-123l-147 152v74l147 153h123zM389 364v-23l167 -178h-123l-147 152v74l147 153h123z" />
    <glyph glyph-name="guilsinglright.case" horiz-adv-x="380" 
d="M222 341v23l-167 178h123l147 -153v-74l-147 -152h-123z" />
    <glyph glyph-name="guilsinglleft.case" horiz-adv-x="380" 
d="M158 364v-23l167 -178h-123l-147 152v74l147 153h123z" />
    <glyph glyph-name="exclamdown.case" horiz-adv-x="330" 
d="M222 0h-115v292l21 220h73l21 -220v-292zM100 714h129v-134h-129v134z" />
    <glyph glyph-name="questiondown.case" horiz-adv-x="563" 
d="M289 -13q-109 0 -169.5 55.5t-60.5 145.5q0 48 18.5 85t39 56t64.5 52q38 28 51 47t13 57v27h115v-27q0 -59 -22 -93t-83 -82q-42 -30 -61 -55.5t-19 -66.5q0 -42 30 -71.5t82 -29.5q116 0 120 118h115q-2 -98 -63.5 -158t-169.5 -60zM239 714h129v-134h-129v134z" />
    <glyph glyph-name="a.ss03" horiz-adv-x="629" 
d="M268 522q103 0 150 -62h24v49h109v-509h-109v49h-24q-48 -62 -150 -62q-101 0 -160.5 75.5t-59.5 192.5t59.5 192t160.5 75zM300 83q70 0 105.5 49t35.5 123q0 73 -35.5 122t-105.5 49q-67 0 -103 -47t-36 -124t36 -124.5t103 -47.5z" />
    <glyph glyph-name="aacute.ss03" horiz-adv-x="629" 
d="M268 522q103 0 150 -62h24v49h109v-509h-109v49h-24q-48 -62 -150 -62q-101 0 -160.5 75.5t-59.5 192.5t59.5 192t160.5 75zM300 83q70 0 105.5 49t35.5 123q0 73 -35.5 122t-105.5 49q-67 0 -103 -47t-36 -124t36 -124.5t103 -47.5zM458 727l-113 -145h-99l89 145h123z
" />
    <glyph glyph-name="agrave.ss03" horiz-adv-x="629" 
d="M268 522q103 0 150 -62h24v49h109v-509h-109v49h-24q-48 -62 -150 -62q-101 0 -160.5 75.5t-59.5 192.5t59.5 192t160.5 75zM300 83q70 0 105.5 49t35.5 123q0 73 -35.5 122t-105.5 49q-67 0 -103 -47t-36 -124t36 -124.5t103 -47.5zM276 582l-112 145h123l89 -145h-100z
" />
    <glyph glyph-name="acircumflex.ss03" horiz-adv-x="629" 
d="M268 522q103 0 150 -62h24v49h109v-509h-109v49h-24q-48 -62 -150 -62q-101 0 -160.5 75.5t-59.5 192.5t59.5 192t160.5 75zM300 83q70 0 105.5 49t35.5 123q0 73 -35.5 122t-105.5 49q-67 0 -103 -47t-36 -124t36 -124.5t103 -47.5zM364 727l108 -145h-91l-58 75h-24
l-57 -75h-89l109 145h102z" />
    <glyph glyph-name="adieresis.ss03" horiz-adv-x="629" 
d="M268 522q103 0 150 -62h24v49h109v-509h-109v49h-24q-48 -62 -150 -62q-101 0 -160.5 75.5t-59.5 192.5t59.5 192t160.5 75zM300 83q70 0 105.5 49t35.5 123q0 73 -35.5 122t-105.5 49q-67 0 -103 -47t-36 -124t36 -124.5t103 -47.5zM455 618h-100v109h100v-109zM266 618
h-101v109h101v-109z" />
    <glyph glyph-name="atilde.ss03" horiz-adv-x="629" 
d="M268 522q103 0 150 -62h24v49h109v-509h-109v49h-24q-48 -62 -150 -62q-101 0 -160.5 75.5t-59.5 192.5t59.5 192t160.5 75zM300 83q70 0 105.5 49t35.5 123q0 73 -35.5 122t-105.5 49q-67 0 -103 -47t-36 -124t36 -124.5t103 -47.5zM415 722h59q0 -136 -98 -136
q-35 0 -78 32t-61 32q-34 0 -34 -64h-59q0 136 98 136q35 0 78.5 -32t61.5 -32q33 0 33 64z" />
    <glyph glyph-name="aring.ss03" horiz-adv-x="629" 
d="M313 798q48 0 80.5 -32t32.5 -80q0 -45 -33 -78t-80 -33q-46 0 -80 33t-34 78q0 47 33.5 79.5t80.5 32.5zM313 633q23 0 38.5 15t15.5 38t-15.5 39t-38.5 16t-38.5 -16t-15.5 -39t15.5 -38t38.5 -15zM268 522q103 0 150 -62h24v49h109v-509h-109v49h-24q-48 -62 -150 -62
q-101 0 -160.5 75.5t-59.5 192.5t59.5 192t160.5 75zM300 83q70 0 105.5 49t35.5 123q0 73 -35.5 122t-105.5 49q-67 0 -103 -47t-36 -124t36 -124.5t103 -47.5z" />
    <glyph glyph-name="amacron.ss03" horiz-adv-x="629" 
d="M268 522q103 0 150 -62h24v49h109v-509h-109v49h-24q-48 -62 -150 -62q-101 0 -160.5 75.5t-59.5 192.5t59.5 192t160.5 75zM300 83q70 0 105.5 49t35.5 123q0 73 -35.5 122t-105.5 49q-67 0 -103 -47t-36 -124t36 -124.5t103 -47.5zM458 629h-292v75h292v-75z" />
    <glyph glyph-name="abreve.ss03" horiz-adv-x="629" 
d="M268 522q103 0 150 -62h24v49h109v-509h-109v49h-24q-48 -62 -150 -62q-101 0 -160.5 75.5t-59.5 192.5t59.5 192t160.5 75zM300 83q70 0 105.5 49t35.5 123q0 73 -35.5 122t-105.5 49q-67 0 -103 -47t-36 -124t36 -124.5t103 -47.5zM377 727h72q0 -68 -36.5 -106.5
t-104.5 -38.5t-105 38.5t-37 106.5h73q0 -77 69 -77t69 77z" />
    <glyph glyph-name="aogonek.ss03" horiz-adv-x="629" 
d="M268 522q103 0 150 -62h24v49h109v-509q-65 -33 -65 -81q0 -22 17.5 -35t49.5 -13v-71h-26q-64 0 -96.5 25.5t-32.5 70.5q0 31 19.5 60t53.5 44h-29v49h-24q-48 -62 -150 -62q-101 0 -160.5 75.5t-59.5 192.5t59.5 192t160.5 75zM300 83q70 0 105.5 49t35.5 123
q0 73 -35.5 122t-105.5 49q-67 0 -103 -47t-36 -124t36 -124.5t103 -47.5z" />
    <glyph glyph-name="t.ss04" horiz-adv-x="367" 
d="M219 0h-113v413h-81v96h81v148h113v-148h120v-96h-120v-413z" />
    <glyph glyph-name="tcaron.ss04" horiz-adv-x="416" 
d="M373 657h-58v111h125v-133l-65 -77h-67l65 77v22zM219 0h-113v413h-81v96h81v148h113v-148h120v-96h-120v-413z" />
    <glyph glyph-name="uni0163.ss04" horiz-adv-x="367" 
d="M219 0h-113v413h-81v96h81v148h113v-148h120v-96h-120v-413zM162 -226h-68l62 61v20h-53v89h120v-109z" />
    <glyph glyph-name="Y.ss05" horiz-adv-x="662" 
d="M325 368h28l165 346h123l-342 -714h-122l102 214l-264 500h128z" />
    <glyph glyph-name="Yacute.ss05" horiz-adv-x="662" 
d="M325 368h28l165 346h123l-342 -714h-122l102 214l-264 500h128zM494 896l-113 -129h-102l88 129h127z" />
    <glyph glyph-name="Ydieresis.ss05" horiz-adv-x="662" 
d="M325 368h28l165 346h123l-342 -714h-122l102 214l-264 500h128zM482 794h-100v102h100v-102zM293 794h-101v102h101v-102z" />
    <glyph glyph-name="ampersand.ss06" horiz-adv-x="669" 
d="M638 423v-98h-68v-104q0 -104 -72.5 -169t-188.5 -65q-120 0 -192 59.5t-72 154.5q0 66 31.5 107.5t75.5 58.5v24q-80 37 -80 137q0 85 64 135.5t162 50.5q97 0 155 -45t69 -125h-114q-20 72 -112 72q-51 0 -81 -25.5t-30 -67.5q0 -46 30.5 -73t88.5 -27h45v-98h-45
q-144 0 -144 -118q0 -56 40.5 -87.5t108.5 -31.5q72 0 109.5 34.5t37.5 98.5v202h182z" />
    <glyph glyph-name="zero.ss07" horiz-adv-x="636" 
d="M317 714q121 0 194 -91t73 -273t-73 -272.5t-194 -90.5q-120 0 -192.5 90.5t-72.5 272.5q0 183 72.5 273.5t192.5 90.5zM169 350q0 -108 27 -171l198 406q-31 25 -77 25q-53 0 -87 -36.5t-47.5 -92t-13.5 -131.5zM317 91q78 0 114 71.5t36 187.5q0 101 -28 170l-198 -405
q34 -24 76 -24z" />
    <glyph glyph-name="emdash.ss02" horiz-adv-x="1444" 
d="M1398 234h-1352v91h1352v-91z" />
    <glyph glyph-name="uni0430.ss03" horiz-adv-x="629" 
d="M268 522q103 0 150 -62h24v49h109v-509h-109v49h-24q-48 -62 -150 -62q-101 0 -160.5 75.5t-59.5 192.5t59.5 192t160.5 75zM300 83q70 0 105.5 49t35.5 123q0 73 -35.5 122t-105.5 49q-67 0 -103 -47t-36 -124t36 -124.5t103 -47.5z" />
    <glyph glyph-name="uni0423.ss08" horiz-adv-x="662" 
d="M132 0v116h30q39 0 61.5 13.5t39.5 46.5l20 41l-263 497h128l181 -344h28l164 344h122l-264 -554q-40 -88 -87.5 -124t-126.5 -36h-33z" />
    <glyph glyph-name="uni040E.ss08" horiz-adv-x="662" 
d="M132 0v116h30q39 0 61.5 13.5t39.5 46.5l20 41l-263 497h128l181 -344h28l164 344h122l-264 -554q-40 -88 -87.5 -124t-126.5 -36h-33zM425 904h91q-4 -72 -52.5 -113t-129.5 -41q-79 0 -128 41t-53 113h92q2 -34 26 -54.5t63 -20.5t63.5 20.5t27.5 54.5z" />
    <glyph glyph-name="six.numr" horiz-adv-x="373" 
d="M206 588q55 0 92.5 -35.5t37.5 -90.5q0 -58 -39 -97t-104 -39q-156 0 -156 189q0 93 39.5 149.5t119.5 56.5q52 0 87 -29.5t43 -75.5h-77q-10 40 -55 40q-34 0 -55.5 -24.5t-26.5 -71.5h17q28 28 77 28zM191 392q30 0 48.5 18t18.5 50q0 31 -19 48t-49 17t-49 -17
t-19 -48q0 -32 19.5 -50t49.5 -18z" />
    <glyph glyph-name="five.numr" horiz-adv-x="368" 
d="M203 595q56 0 92 -37.5t36 -92.5q0 -62 -40.5 -100.5t-104.5 -38.5q-69 0 -107 35.5t-42 92.5h78q7 -58 69 -58q31 0 49.5 18t18.5 50q0 31 -18 49t-48 18q-44 0 -68 -30h-72l20 213h242v-68h-182l-6 -70h20q21 19 63 19z" />
    <glyph glyph-name="four.numr" horiz-adv-x="382" 
d="M296 482h49v-68h-49v-81h-77v81h-186v78l167 222h96v-232zM112 482h109v142h-17l-92 -125v-17z" />
    <glyph glyph-name="three.numr" horiz-adv-x="369" 
d="M237 583v-16q40 -6 67 -34.5t27 -76.5q0 -59 -41.5 -94.5t-106.5 -35.5q-66 0 -107 36t-43 93h77q3 -28 23 -43.5t50 -15.5q33 0 51.5 16t18.5 45t-18.5 45.5t-50.5 16.5q-25 0 -37 -4v65l68 49v17h-155v68h254v-80z" />
    <glyph glyph-name="two.numr" horiz-adv-x="366" 
d="M159 401h170v-68h-292v84l115 77q40 26 63 50t23 52q0 27 -16 41t-43 14q-63 0 -64 -60h-78q2 64 41 97t103 33q62 0 99 -31.5t37 -90.5q0 -69 -76 -124l-82 -57v-17z" />
    <glyph glyph-name="quotedbl.ss01" horiz-adv-x="317" 
d="M80 473v241h34v-241h-34zM203 473v241h34v-241h-34z" />
    <glyph glyph-name="numbersign.ss01" horiz-adv-x="551" 
d="M300 0l32 208h-159l-32 -208h-34l32 208h-104v31h110l34 222h-102v31h107l33 208h34l-34 -208h161l33 208h34l-33 -208h104v-31h-109l-35 -222h103v-31h-108l-32 -208h-35zM213 461l-35 -222h160l35 222h-160z" />
    <glyph glyph-name="quotesingle.ss01" horiz-adv-x="194" 
d="M80 473v241h34v-241h-34z" />
    <glyph glyph-name="parenleft.ss01" horiz-adv-x="238" 
d="M190 759h42q-148 -188 -148 -450t148 -450h-43q-139 189 -139 450q0 260 140 450z" />
    <glyph glyph-name="parenright.ss01" horiz-adv-x="240" 
d="M6 759h42q140 -190 140 -450q0 -261 -139 -450h-43q148 188 148 450t-148 450z" />
    <glyph glyph-name="bracketleft.ss01" horiz-adv-x="258" 
d="M198 -141h-118v900h118v-31h-84v-838h84v-31z" />
    <glyph glyph-name="bracketright.ss01" horiz-adv-x="258" 
d="M178 -141h-118v31h84v838h-84v31h118v-900z" />
    <glyph glyph-name="braceleft.ss01" horiz-adv-x="337" 
d="M137 318v-18q36 -14 36 -91v-215q0 -55 21.5 -79.5t72.5 -24.5h30v-31h-30q-63 0 -95.5 31.5t-32.5 104.5v204q0 51 -8.5 73t-37.5 22h-13v30h13q29 0 37.5 22t8.5 73v204q0 73 32.5 104.5t95.5 31.5h30v-31h-30q-51 0 -72.5 -24.5t-21.5 -79.5v-215q0 -77 -36 -91z" />
    <glyph glyph-name="braceright.ss01" horiz-adv-x="337" 
d="M200 300v18q-36 14 -36 91v215q0 55 -21.5 79.5t-72.5 24.5h-30v31h30q63 0 95.5 -31.5t32.5 -104.5v-204q0 -51 8.5 -73t37.5 -22h13v-30h-13q-29 0 -37.5 -22t-8.5 -73v-204q0 -73 -32.5 -104.5t-95.5 -31.5h-30v31h30q51 0 72.5 24.5t21.5 79.5v215q0 77 36 91z" />
    <glyph glyph-name="asterisk.ss01" horiz-adv-x="452" 
d="M209 714h34l-1 -180l170 60l10 -35l-170 -55l107 -141l-28 -23l-105 147l-105 -147l-28 23l108 142l-171 54l11 35l169 -60z" />
    <glyph glyph-name="plus.ss01" horiz-adv-x="678" 
d="M323 303v239h33v-239h239v-31h-239v-240h-33v240h-240v31h240z" />
    <glyph glyph-name="minus.ss01" horiz-adv-x="678" 
d="M595 272h-512v31h512v-31z" />
    <glyph glyph-name="less.ss01" horiz-adv-x="670" 
d="M587 81v-33l-504 216v44l504 216v-33l-454 -196v-18z" />
    <glyph glyph-name="equal.ss01" horiz-adv-x="676" 
d="M593 206v-31h-510v31h510zM593 398v-31h-510v31h510z" />
    <glyph glyph-name="greater.ss01" horiz-adv-x="670" 
d="M83 48v33l454 196v18l-454 196v33l504 -216v-44z" />
    <glyph glyph-name="hyphen.ss01" horiz-adv-x="384" 
d="M336 264h-288v31h288v-31z" />
    <glyph glyph-name="endash.ss01" horiz-adv-x="619" 
d="M572 264h-526v31h526v-31z" />
    <glyph glyph-name="emdash.ss01" horiz-adv-x="878" 
d="M831 264h-785v31h785v-31z" />
    <glyph glyph-name="emdash.ss01.ss02" horiz-adv-x="1444" 
d="M1398 264h-1352v31h1352v-31z" />
    <glyph glyph-name="underscore.ss01" horiz-adv-x="509" 
d="M510 -120h-511v31h511v-31z" />
    <glyph glyph-name="slash.ss01" horiz-adv-x="365" 
d="M36 -141h-36l302 900h33z" />
    <glyph glyph-name="bar.ss01" horiz-adv-x="214" 
d="M90 -141v900h34v-900h-34z" />
    <glyph glyph-name="backslash.ss01" horiz-adv-x="365" 
d="M365 -141h-36l-299 900h33z" />
    <glyph glyph-name="degree.ss01" horiz-adv-x="461" 
d="M40 523q0 85 54.5 141.5t135.5 56.5t136 -56.5t55 -141.5q0 -84 -55 -140.5t-136 -56.5t-135.5 56t-54.5 141zM74 523q0 -71 44 -118.5t112 -47.5t112.5 47.5t44.5 118.5q0 72 -44 119.5t-113 47.5q-68 0 -112 -47.5t-44 -119.5z" />
    <glyph glyph-name="guillemotleft.ss01" horiz-adv-x="484" 
d="M91 295v-18l172 -180h-42l-166 169v39l166 171h42zM257 295v-18l172 -180h-42l-166 169v39l166 171h42z" />
    <glyph glyph-name="guillemotright.ss01" horiz-adv-x="485" 
d="M394 277v18l-173 181h42l167 -170v-39l-165 -170h-42zM228 277v18l-173 181h42l167 -170v-39l-165 -170h-42z" />
    <glyph glyph-name="guilsinglleft.ss01" horiz-adv-x="318" 
d="M91 295v-18l172 -180h-42l-166 169v39l166 171h42z" />
    <glyph glyph-name="guilsinglright.ss01" horiz-adv-x="318" 
d="M227 277v18l-172 181h42l166 -171v-39l-166 -169h-42z" />
    <glyph glyph-name="quoteleft.ss01" horiz-adv-x="234" 
d="M106 610h33v-102h-64v119l48 87h31l-48 -87v-17z" />
    <glyph glyph-name="quoteright.ss01" horiz-adv-x="234" 
d="M123 612h-33v102h64v-119l-48 -87h-31l48 87v17z" />
    <glyph glyph-name="quotesinglbase.ss01" horiz-adv-x="234" 
d="M123 0h-33v102h64v-119l-48 -87h-31l48 87v17z" />
    <glyph glyph-name="quotedblleft.ss01" horiz-adv-x="371" 
d="M243 610h33v-102h-64v119l48 87h31l-48 -87v-17zM106 610h33v-102h-64v119l48 87h31l-48 -87v-17z" />
    <glyph glyph-name="quotedblright.ss01" horiz-adv-x="371" 
d="M123 612h-33v102h64v-119l-48 -87h-31l48 87v17zM260 612h-33v102h64v-119l-48 -87h-31l48 87v17z" />
    <glyph glyph-name="quotedblbase.ss01" horiz-adv-x="371" 
d="M123 0h-33v102h64v-119l-48 -87h-31l48 87v17zM260 0h-33v102h64v-119l-48 -87h-31l48 87v17z" />
    <glyph glyph-name="arrowleft.ss01" horiz-adv-x="814" 
d="M299 509h46l-218 -219v-20h631v-31h-631v-21l218 -218h-46l-255 254z" />
    <glyph glyph-name="arrowup.ss01" horiz-adv-x="675" 
d="M592 459v-46l-218 220h-19v-633h-34v633h-19l-219 -221v46l255 256z" />
    <glyph glyph-name="arrowright.ss01" horiz-adv-x="814" 
d="M469 509h46l255 -255l-255 -254h-46l218 218v21h-631v31h631v20z" />
    <glyph glyph-name="arrowdown.ss01" horiz-adv-x="675" 
d="M592 301v-46l-254 -255l-255 256v46l219 -221h19v633h34v-633h19z" />
    <glyph glyph-name="uni2196.ss01" horiz-adv-x="682" 
d="M444 714l32 -32h-309l-13 -14l445 -447l-23 -23l-447 446l-13 -14v-310l-33 33v361h361z" />
    <glyph glyph-name="uni2197.ss01" horiz-adv-x="682" 
d="M206 682l32 32h361v-361l-33 -33v310l-13 14l-447 -446l-23 23l445 447l-13 14h-309z" />
    <glyph glyph-name="uni2198.ss01" horiz-adv-x="682" 
d="M476 32l-32 -32h-361v361l33 33v-310l13 -14l447 446l23 -23l-445 -447l13 -14h309z" />
    <glyph glyph-name="uni2199.ss01" horiz-adv-x="682" 
d="M238 0l-32 32h309l13 14l-445 447l23 23l447 -446l13 14v310l33 -33v-361h-361z" />
    <glyph glyph-name="parenleft.ss01.case" horiz-adv-x="238" 
d="M190 807h42q-148 -188 -148 -450t148 -450h-43q-139 189 -139 450q0 260 140 450z" />
    <glyph glyph-name="parenright.ss01.case" horiz-adv-x="238" 
d="M6 807h42q140 -190 140 -450q0 -261 -139 -450h-43q148 188 148 450t-148 450z" />
    <glyph glyph-name="bracketleft.ss01.case" horiz-adv-x="258" 
d="M198 -93h-118v900h118v-31h-84v-838h84v-31z" />
    <glyph glyph-name="bracketright.ss01.case" horiz-adv-x="258" 
d="M178 -93h-118v31h84v838h-84v31h118v-900z" />
    <glyph glyph-name="braceleft.ss01.case" horiz-adv-x="337" 
d="M137 366v-18q36 -14 36 -91v-215q0 -55 21.5 -79.5t72.5 -24.5h30v-31h-30q-63 0 -95.5 31.5t-32.5 104.5v204q0 51 -8.5 73t-37.5 22h-13v30h13q29 0 37.5 22t8.5 73v204q0 73 32.5 104.5t95.5 31.5h30v-31h-30q-51 0 -72.5 -24.5t-21.5 -79.5v-215q0 -77 -36 -91z" />
    <glyph glyph-name="braceright.ss01.case" horiz-adv-x="337" 
d="M200 348v18q-36 14 -36 91v215q0 55 -21.5 79.5t-72.5 24.5h-30v31h30q63 0 95.5 -31.5t32.5 -104.5v-204q0 -51 8.5 -73t37.5 -22h13v-30h-13q-29 0 -37.5 -22t-8.5 -73v-204q0 -73 -32.5 -104.5t-95.5 -31.5h-30v31h30q51 0 72.5 24.5t21.5 79.5v215q0 77 36 91z" />
    <glyph glyph-name="guillemotleft.ss01.case" horiz-adv-x="484" 
d="M91 361v-18l172 -180h-42l-166 169v39l166 171h42zM257 361v-18l172 -180h-42l-166 169v39l166 171h42z" />
    <glyph glyph-name="guillemotright.ss01.case" horiz-adv-x="485" 
d="M394 343v18l-173 181h42l167 -170v-39l-165 -170h-42zM228 343v18l-173 181h42l167 -170v-39l-165 -170h-42z" />
    <glyph glyph-name="guilsinglleft.ss01.case" horiz-adv-x="318" 
d="M91 361v-18l172 -180h-42l-166 169v39l166 171h42z" />
    <glyph glyph-name="guilsinglright.ss01.case" horiz-adv-x="318" 
d="M227 343v18l-172 181h42l166 -171v-39l-166 -169h-42z" />
    <glyph glyph-name="hyphen.ss01.case" horiz-adv-x="384" 
d="M336 349h-288v31h288v-31z" />
    <glyph glyph-name="endash.ss01.case" horiz-adv-x="619" 
d="M572 349h-526v31h526v-31z" />
    <glyph glyph-name="emdash.ss01.case" horiz-adv-x="878" 
d="M831 349h-785v31h785v-31z" />
    <glyph glyph-name="emdash.ss01.ss02.case" horiz-adv-x="1445" 
d="M1398 349h-1352v31h1352v-31z" />
    <glyph glyph-name="one.numr" horiz-adv-x="333" 
d="M208 401h88v-68h-259v68h92v227h-18l-74 -44v75l93 55h78v-313z" />
    <glyph glyph-name="zero.numr" horiz-adv-x="384" 
d="M347 523q0 -98 -42.5 -147.5t-112.5 -49.5q-71 0 -113 49.5t-42 147.5q0 99 42 148.5t113 49.5t113 -49t42 -149zM192 396q39 0 58 35.5t19 91.5t-19 92t-58 36q-77 0 -77 -128q0 -127 77 -127z" />
    <glyph glyph-name="four.dnom" horiz-adv-x="382" 
d="M296 149h49v-68h-49v-81h-77v81h-186v78l167 222h96v-232zM112 149h109v142h-17l-92 -125v-17z" />
    </font>
</defs>
</svg>
